Ошибка

Прогулки с динозаврами 3D / Walking with Dinosaurs 3D (Бэрри Кук, Нил Найтингейл) [2013, семейный, BDRip 1080p, 3D] [Горизонтальная анаморфная стереопара]

Ответить на тему
 
Автор Сообщение

BZzz

Пол: Пол:Муж

Стаж: 5 лет 1 месяц

Сообщений: 3647

Россия
Рейтинг

post 13-Мар-2014 18:55 2[+]

[Цитировать] 

Walking with Dinosaurs 3D
«Величайшее приключение за 70 миллионов лет»




Год выпуска: 2013
Страна: США , Великобритания , Индия
Жанр: семейный
Продолжительность: 01:27:23
Перевод: Профессиональный (дублированный)[лицензия]
Субтитры: английские

Режиссер: Бэрри Кук, Нил Найтингейл

В ролях: Чарли Роу (Charlie Rowe), Карл Урбан (Karl Urban), Ангури Райс (Angourie Rice), Джон Легуизамо (John Leguizamo), Джастин Лонг (Justin Long), Скайлер Стоун (Skyler Stone), Тия Сиркар (Tiya Sircar), Клэй Сэвадж (Clay Savage), Джуд Тинсели (Jude Tinsely), Мэри Мэтилин Маусер (Mary Matilyn Mouser), Кэти Силверман (Katie Silverman), Мэдисон Моэллерс (Madison Moellers), Майкл Леоне (Michael Leone)

Описание: «Прогулки с динозаврами» — это увлекательное путешествие с полным погружением в 3D-реальность, созданную по инновационной технологии CGI. Мы увидим, как выглядели динозавры, как они жили и с какими опасностями им пришлось столкнуться. Главный герой истории — храбрый динозаврик Патчи, он самый маленький в семье, но именно ему предстоит стать лидером и спасти своих сородичей.

Бюджет: $80 000 000
Сборы в США: $35 918 221
Сборы в мире: + $88 800 000 = $124 718 221
Сборы в России: $3 244 951
Рейтинг MPAA:



Качество: BDRip 1080p 3D (HSBS)
Формат: MKV
Видео кодек: AVC
Аудио кодек: AC3
Видео: 1920x1080 (16:9), 23.976 fps, High@L4.1, 11.2 Mbps
Аудио #1: Rus AC3, 448 Kbps, 48.0 KHz, 6 ch
Аудио #2: Eng DTS, 1 510 Kbps, 48.0 KHz, 6 ch
...
> В исследовании, опубликованном в декабре 2013 года, буквально за несколько дней до выхода фильма в прокат, говорится о том, что у эдмонтозавров было что-то в духе «мясистой бородки» или гребня на голове. У моделей в фильме естественно не хватает этой детали.

...
> Тираннозавры в этом фильме чешуйчатые, потому что их модели были сделаны еще до того, как произошло открытие гигантского пернатого ютираннуса.

...
> Режиссер-аниматор Марко Маренги работал аниматором и в оригинальном сериале «BBC: Прогулки с динозаврами» (1999).

...
> Хотя тот факт, что у маленьких хищных динозавров были перья, был известен с конца девяностых годов, это один из первых фильмов, в котором показали таких динозавров. Первый фильм, в котором показали хищников с перьями, был «Парк Юрского периода 3» (2001). Также перья могли появиться в мультфильме «Динозавр» (2000), но ограничения по бюджету и по возможностям анимации на тот момент заставили создателей отказаться от этой идеи.
Format : Matroska
Format version : Version 3 / Version 2
File size : 8.21 GiB
Duration : 1h 27mn
Overall bit rate : 13.4 Mbps
Encoded date : UTC 2014-03-13 11:05:36
Writing application : mkvmerge v6.7.0 ('Back to the Ground') 64bit built on Jan 8 2014 15:10:52
Writing library : libebml v1.3.0 + libmatroska v1.4.1

Video
ID : 1
Format : AVC
Format/Info : Advanced Video Codec
Format profile : High@L4.1
MultiView_Count : 2
MultiView_Layout : Side by Side (left eye first)
Format settings, CABAC : Yes
Format settings, ReFrames : 4 frames
Codec ID : V_MPEG4/ISO/AVC
Duration : 1h 27mn
Bit rate : 11.2 Mbps
Width : 1 920 pixels
Height : 1 080 pixels
Display aspect ratio : 16:9
Frame rate mode : Constant
Frame rate : 23.976 fps
Color space : YUV
Chroma subsampling : 4:2:0
Bit depth : 8 bits
Scan type : Progressive
Bits/(Pixel*Frame) : 0.226
Stream size : 6.85 GiB (83%)
Language : English
Default : Yes
Forced : No

Audio #1
ID : 2
Format : AC-3
Format/Info : Audio Coding 3
Mode extension : CM (complete main)
Format settings, Endianness : Big
Codec ID : A_AC3
Duration : 1h 27mn
Bit rate mode : Constant
Bit rate : 448 Kbps
Channel(s) : 6 channels
Channel positions : Front: L C R, Side: L R, LFE
Sampling rate : 48.0 KHz
Bit depth : 16 bits
Compression mode : Lossy
Stream size : 280 MiB (3%)
Language : Russian
Default : Yes
Forced : No

Audio #2
ID : 3
Format : DTS
Format/Info : Digital Theater Systems
Mode : 16
Format settings, Endianness : Big
Codec ID : A_DTS
Duration : 1h 27mn
Bit rate mode : Constant
Bit rate : 1 509 Kbps
Channel(s) : 6 channels
Channel positions : Front: L C R, Side: L R, LFE
Sampling rate : 48.0 KHz
Bit depth : 24 bits
Compression mode : Lossy
Stream size : 944 MiB (11%)
Language : English
Default : No
Forced : No

Menu
00:00:00.000 : en:00:00:00.000
00:01:44.771 : en:00:01:44.771
00:05:21.196 : en:00:05:21.196
00:07:27.989 : en:00:07:27.989
00:12:06.351 : en:00:12:06.351
00:14:47.220 : en:00:14:47.220
00:17:04.190 : en:00:17:04.190
00:18:30.609 : en:00:18:30.609
00:21:47.389 : en:00:21:47.389
00:24:30.761 : en:00:24:30.761
00:27:07.459 : en:00:27:07.459
00:28:28.206 : en:00:28:28.206
00:30:40.756 : en:00:30:40.756
00:32:58.643 : en:00:32:58.643
00:37:38.006 : en:00:37:38.006
00:42:02.562 : en:00:42:02.562
00:44:00.096 : en:00:44:00.096
00:47:36.103 : en:00:47:36.103
00:50:59.473 : en:00:50:59.473
00:52:51.043 : en:00:52:51.043
00:56:49.281 : en:00:56:49.281
00:58:20.997 : en:00:58:20.997
01:02:48.973 : en:01:02:48.973
01:06:45.627 : en:01:06:45.627
01:10:40.319 : en:01:10:40.319
01:16:54.485 : en:01:16:54.485
01:18:40.466 : en:01:18:40.466
01:20:15.811 : en:01:20:15.811
info [Профиль]  [ЛС] 

Orca

Пол: Пол:Муж

Стаж: 3 года 9 месяцев

Сообщений: 2

Россия
Рейтинг

post 25-Мар-2014 14:33 (спустя 11 дней) [-]0[+]

[Цитировать] 

чет не так с этим 3д. на первый план не динозавры, а пейзаж выходит.
info [Профиль]  [ЛС] 

S@mur@i

Пол: Пол:Муж

Стаж: 7 лет 5 месяцев

Сообщений: 191

Рейтинг

post 25-Мар-2014 21:16 (спустя 6 часов) [-]0[+]

[Цитировать] 

Orca писал(а):

чет не так с этим 3д. на первый план не динозавры, а пейзаж выходит.
правое изображение первое, поменяйте местами
info [Профиль]  [ЛС] 

PhotoBY

Пол: Пол:Муж

Стаж: 5 лет

Сообщений: 11

Чехия
Рейтинг

post 06-Май-2014 11:03 (спустя 1 месяц 11 дней) [-]0[+]

[Цитировать] 

по ссылке сэмпл отсутствует. статус: "Этот файл всё ещё заливается!"
info [Профиль]  [ЛС] 

post 06-Май-2014 11:15 (спустя 11 минут) [-]0[+]

Топик был перенесен из форума 3D Новинки в форум 3D

BZzz
 
Показать сообщения:    
Ответить на тему

Текущее время: 04-Дек 14:18

Часовой пояс: GMT + 4



Вы не можете начинать темы
Вы не можете отвечать на сообщения
Вы не можете редактировать свои сообщения
Вы не можете удалять свои сообщения
Вы не можете голосовать в опросах
Вы не можете прикреплять файлы к сообщениям
Вы не можете скачивать файлы