Ошибка

Чаггингтон: Веселые паровозики / Chuggington (2 сезон: 26 серии из 26) (Сара Болл) [2010-2011, Мультсериал, детский, DVDRip]

Ответить на тему
 
Автор Сообщение

Teodor Cartman

Пол: Пол:Муж

Стаж: 2 года 10 месяцев

Сообщений: 55

Россия
Рейтинг

post 07-Мар-2014 10:24 5[+]

[Цитировать] 

Чаггингтон: Веселые паровозики / Chuggington


Год выпуска: 20010-2011
Выпущено: Великобритания, Ludorum
Жанр: Мультсериал, детский
Сезон: 2 сезон
Серий: 26 из 26 серий
Продолжительность: по ~ 00:10:00 каждая серия
Перевод: Русский (полный дубляж)
Режиссер: Сара Болл
Роли озвучивали: Бриджид Харингтон, Морган Овертон, Изабелла Пальмиери, Имоджен Бэйли, Энди Найман, Чарли Джордж, Мария Дарлинг, Пол Патинг, Саша Дхаван
Описание: Центр Чаггингтона — депо, место обитания дружных паровозов. Каждый день отсюда в разные концы города и за его пределы отправляются составы, чтобы доставить по адресам важные грузы. Трое друзей — паровозики Коко, Уилсон и Брюстер — еще совсем малыши, под руководством опытных наставников они осваивают науку доставки грузов. Пусть они и непоседы, и любят подурачиться, но никогда не сходят с рельсов, все задания исполняют на пятерку, а еще маленькие «чаггеры» всегда помогают друг другу и жителям города. Уилсон — этот паровозик очень рад, что оказался в Чаггингтоне. Он еще не все умеет, но постоянно учится. Брюстер — сильный, смелый ученик и надежный друг, который всегда придет на помощь. А еще он умеет громко гудеть! Коко — девочка-кокетка, самый быстрый состав в Чаггингтоне, потому что она — электровоз. Коко обожает гоняться наперегонки. А еще есть Пит — самый старый и уважаемый паровоз в Чаггингтоне, наставники новичков Данбар и Гаррисон, быстрый пассажирский поезд Эмери и всегда очень занятой Чесворт. Помогают обслуживать депо с паровозами компьютер Ви, паренек Морган и его подруга Карен.

Качество: DVDRip
Формат: AVI
Видео кодек: XviD
Аудио кодек: AC3
Видео: 720x400 25fps 1898kbps
Аудио: 48000Hz stereo 224kbps
01. Новый наряд Коко
02. Самый жаркий день
03. Важное правило
04. Камера, свет, мотор!
05. Кто сильнее
06. Штормовое предупреждение
07. Снимок для газеты
08. Кто будет первым
09. Тише едешь дальше будешь
10. Всезнайка Ходж
11. Динозавр в городе
12. Зимнее приключение
13. Поезда спешат на помощь
14. Мастер на все руки
15. Домой в космос
16. Ледяной дождь
17. Роль в кино
18. Приключение в горах
19. Специальный корреспондент
20. Новый дом для пчёл
21. Встреча с мэром
22. Премия года
23. Время ремонта
24. Новое изобретение
25. Общая награда
26. Обманывать не хорошо
General
Complete name : s02\s02e05 Chug of War.avi
Format : AVI
Format/Info : Audio Video Interleave
File size : 153 MiB
Duration : 10mn 8s
Overall bit rate : 2 113 Kbps

Video
ID : 0
Format : MPEG-4 Visual
Format profile : Advanced Simple@L5
Format settings, BVOP : 1
Format settings, QPel : No
Format settings, GMC : No warppoints
Format settings, Matrix : Default (MPEG)
Codec ID : XVID
Codec ID/Hint : XviD
Duration : 10mn 8s
Bit rate : 1 881 Kbps
Width : 720 pixels
Height : 400 pixels
Display aspect ratio : 16:9
Frame rate : 25.000 fps
Color space : YUV
Chroma subsampling : 4:2:0
Bit depth : 8 bits
Scan type : Progressive
Compression mode : Lossy
Bits/(Pixel*Frame) : 0.261
Stream size : 137 MiB (89%)
Writing library : XviD 1.2.1 (UTC 2008-12-04)

Audio
ID : 1
Format : AC-3
Format/Info : Audio Coding 3
Mode extension : CM (complete main)
Format settings, Endianness : Big
Codec ID : 2000
Duration : 10mn 8s
Bit rate mode : Constant
Bit rate : 224 Kbps
Channel(s) : 2 channels
Channel positions : Front: L R
Sampling rate : 48.0 KHz
Bit depth : 16 bits
Compression mode : Lossy
Stream size : 16.3 MiB (11%)
Alignment : Aligned on interleaves
Interleave, duration : 64 ms (1.60 video frames)
Interleave, preload duration : 192 ms
Title : 01VTS_08_1 T01 2_0ch 224Kbps DELAY 0ms
info [Профиль]  [ЛС] 

DeusNeko

Пол: Пол:Муж

Стаж: 7 лет 2 месяца

Сообщений: 1381

Предупреждений: 1

Россия
Рейтинг

post 08-Мар-2014 00:16 (спустя 13 часов) [-]1[+]

[Цитировать] 


_________________
Matrix Mini-I Pro -> Questyle CMA800R -> Sennheiser HD 280/PSB M4U 1/Beyerdynamic DT 770 Pro/Beyerdynamic T90/HiFiMAN HE-400
info [Профиль]  [ЛС] 

Teodor Cartman

Пол: Пол:Муж

Стаж: 2 года 10 месяцев

Сообщений: 55

Россия
Рейтинг

post 14-Мар-2014 12:33 (спустя 6 дней) [-]0[+]

[Цитировать] 

По просьбе Томаса, выложил и про него Улыбаюсь
info [Профиль]  [ЛС] 
Показать сообщения:    
Ответить на тему

Текущее время: 06-Дек 16:11

Часовой пояс: GMT + 4



Вы не можете начинать темы
Вы не можете отвечать на сообщения
Вы не можете редактировать свои сообщения
Вы не можете удалять свои сообщения
Вы не можете голосовать в опросах
Вы не можете прикреплять файлы к сообщениям
Вы не можете скачивать файлы