Ошибка

Чаггингтон: Веселые паровозики / Chuggington (1 сезон: 52 серии из 52) (Сара Болл) [2008-2009, Мультсериал,детский, DVDRip]

Ответить на тему
 
Автор Сообщение

Teodor Cartman

Пол: Пол:Муж

Стаж: 2 года 10 месяцев

Сообщений: 55

Россия
Рейтинг

post 05-Мар-2014 11:30 0[+]

[Цитировать] 

Чаггингтон: Веселые паровозики / Chuggington


Год выпуска: 2008-2009
Выпущено: Великобритания, Ludorum
Жанр: Мультсериал, детский
Сезон: 1 сезон
Серий: 52 из 52 серий
Продолжительность: по ~ 00:10:00 каждая серия
Перевод: Русский (полный дубляж)
Режиссер: Сара Болл
Роли озвучивали: Бриджид Харингтон, Морган Овертон, Изабелла Пальмиери, Имоджен Бэйли, Энди Найман, Чарли Джордж, Мария Дарлинг, Пол Патинг, Саша Дхаван
Описание: Центр Чаггингтона — депо, место обитания дружных паровозов. Каждый день отсюда в разные концы города и за его пределы отправляются составы, чтобы доставить по адресам важные грузы. Трое друзей — паровозики Коко, Уилсон и Брюстер — еще совсем малыши, под руководством опытных наставников они осваивают науку доставки грузов. Пусть они и непоседы, и любят подурачиться, но никогда не сходят с рельсов, все задания исполняют на пятерку, а еще маленькие «чаггеры» всегда помогают друг другу и жителям города. Уилсон — этот паровозик очень рад, что оказался в Чаггингтоне. Он еще не все умеет, но постоянно учится. Брюстер — сильный, смелый ученик и надежный друг, который всегда придет на помощь. А еще он умеет громко гудеть! Коко — девочка-кокетка, самый быстрый состав в Чаггингтоне, потому что она — электровоз. Коко обожает гоняться наперегонки. А еще есть Пит — самый старый и уважаемый паровоз в Чаггингтоне, наставники новичков Данбар и Гаррисон, быстрый пассажирский поезд Эмери и всегда очень занятой Чесворт. Помогают обслуживать депо с паровозами компьютер Ви, паренек Морган и его подруга Карен.

Качество: DVDRip
Формат: AVI
Видео кодек: XviD
Аудио кодек: AC3
Видео: 720x400 25fps 1898kbps
Аудио: 48000Hz stereo 224kbps
01. Не угнаться за Коко (Can't Catch Koko)
02. Уилсон и слон (Wilson And The Elephant)
03. Скрипящий Уилсон (Clunky Wilson)
04. Коко и туннель (Koko and the Tunnel)
05. Жми на тормоза (Braking Brewster)
06. Ходж и Магнит (Hodge and the Magnet)
07. Коко и белки (Koko and the Squirrels)
08. Мойка для Уилсона (Wilson Gets a Wash)
09. Банановый проказник (Brewster Goes Bananas)
10. Уилсон и мороженное (Bang Klang Wilson)
11. Экскурсия старого паровоза Пита (Old Puffer Pete's Tour)
12. Эдди опять опаздывает (Late Again Eddie)
13. Плавный Уилсон (Wilson's Smooth Moves)
14. Помошники Фростини (Cool Wilson)
15. Большая гонка (The Chugger Championship)
16. Супер Брюстер (Action Brewster)
17. Щенок (Koko's Puppy Training)
18. Зефи и сирена (Zephie's Zoomaround)
19. Коко на страже (Koko on Call)
20. Прогулка с Олвин (Outward Bound Olwin)
21. Брюстер и дракон (Brewster and the Dragon)
22. Проснись Уилсон (Wake Up Wilson)
23. Всезнайка Брюстер (Brewster Knows Best)
24. Коко на экзамене (Koko Pulls It Off
25. Уилсон и мороженое (Wilson and the Ice Cream)
26. Экскурсия Уилсона (Wilson's Wacky Tour)
27. Секрет Ходжа (Hodge's Secret)
28. Фруктовый праздник Фростини (Frostini's Fruit Fandango)
29. Зефи репортёр (Zephie Ace Reporter)
30. Эмери супер звезда (Famous Emery)
31. Осторожней Уилсон!(Watch Out Wilson!)
32. Хобби Брюстера (Brewster's Hobby)
33. Обезьянья работа Зефи (Zephie's Monkey Business)
34. Бедный старина Пит (Poor Old Puffer Pete)
35. Инспектор Эмери (Inspector Emery)
36. Доктор Уилсон (Nurse Wilson)
37. Невероятные приключения Мтамбо (Mtambo's Amazing Adventure)
38. Колыбельная для Чезворда (Rock-a-Bye Chatsworth)
39. Спор Ходжа и Коко (Helpful Hodge)
40. Брюстер спешит на помощь (Brewster to the Rescue)
41. Уилсон и малярный вагон (Wilson and the Paint Wagon)
42. Эдди находит время (Eddie Finds Time)
43. Королевское путешествие Мтамбо (Mtambo's Royal Tour)
44. Уилсон и дикий ветер (Wilson and the Wild Wind)
45. Котёл для Пита (Old Puffer Pete's Firebox)
46. Уилсон решает полетать (Jet Pack Wilson)
47. Маленький помошник Брюстера (Brewster's Little Helper)
48. Олвин пускает пузыри (Bubbly Olwin)
49. Коко босс (Koko Takes Charge)
50. Уилсон и вагон с бумагой (Wilson's Paper Trail)
51. Парад в честь Пита (Puffer Pete's Big Show)
52. Тренировка Гарисона (Training Time Harrison)
General
Complete name : 28 Frostini's Fruit Fandango.avi
Format : AVI
Format/Info : Audio Video Interleave
File size : 152 MiB
Duration : 10mn 0s
Overall bit rate : 2 128 Kbps
Writing application : VirtualDubModRus 1.5.10.2 (build 2542/release)
Writing library : VirtualDubMod build 2542/release

Video
ID : 0
Format : MPEG-4 Visual
Format profile : Advanced Simple@L5
Format settings, BVOP : 2
Format settings, QPel : No
Format settings, GMC : No warppoints
Format settings, Matrix : Default (MPEG)
Muxing mode : Packed bitstream
Codec ID : XVID
Codec ID/Hint : XviD
Duration : 10mn 0s
Bit rate : 1 894 Kbps
Width : 720 pixels
Height : 400 pixels
Display aspect ratio : 16:9
Frame rate : 25.000 fps
Color space : YUV
Chroma subsampling : 4:2:0
Bit depth : 8 bits
Scan type : Progressive
Compression mode : Lossy
Bits/(Pixel*Frame) : 0.263
Stream size : 136 MiB (89%)
Writing library : XviD 64

Audio
ID : 1
Format : AC-3
Format/Info : Audio Coding 3
Mode extension : CM (complete main)
Format settings, Endianness : Big
Codec ID : 2000
Duration : 10mn 0s
Bit rate mode : Constant
Bit rate : 224 Kbps
Channel(s) : 2 channels
Channel positions : Front: L R
Sampling rate : 48.0 KHz
Bit depth : 16 bits
Compression mode : Lossy
Delay relative to video : 16ms
Stream size : 16.0 MiB (11%)
Alignment : Split accross interleaves
Interleave, duration : 40 ms (1.00 video frame)
Interleave, preload duration : 500 ms
info [Профиль]  [ЛС] 

post 05-Мар-2014 16:31 (спустя 5 часов) [-]0[+]

Топик был перенесен из форума Анонсы в форум Мультсериалы

BZzz
 

VistaKer

Стаж: 6 лет 10 месяцев

Сообщений: 23

Рейтинг

post 05-Мар-2014 17:27 (спустя 5 часов) [-]0[+]

[Цитировать] 

А второй есть?
info [Профиль]  [ЛС] 

Teodor Cartman

Пол: Пол:Муж

Стаж: 2 года 10 месяцев

Сообщений: 55

Россия
Рейтинг

post 05-Мар-2014 17:31 (спустя 3 минуты) [-]0[+]

[Цитировать] 

Да, есть. Позже выложу.
info [Профиль]  [ЛС] 
Показать сообщения:    
Ответить на тему

Текущее время: 07-Дек 01:54

Часовой пояс: GMT + 4



Вы не можете начинать темы
Вы не можете отвечать на сообщения
Вы не можете редактировать свои сообщения
Вы не можете удалять свои сообщения
Вы не можете голосовать в опросах
Вы не можете прикреплять файлы к сообщениям
Вы не можете скачивать файлы