Ошибка

Холодное сердце / Frozen (Крис Бак, Дженнифер Ли) [2013, мультфильм, мюзикл, фэнтези, комедия, мелодрама, приключения, семейный, BDRip 720p]

Ответить на тему
 
Автор Сообщение

L

Пол: Пол:Муж

Стаж: 6 лет 7 месяцев

Сообщений: 10784

Украина
Рейтинг

post 27-Фев-2014 11:27 3[+]

[Цитировать] 

Холодное сердце / Frozen
Год выпуска: 2013
Жанр: Мультфильм, фэнтези, комедия, приключения, семейный
Выпущено: США, Walt Disney Animation Studios, Walt Disney Pictures
Продолжительность: 01:40:45
Перевод: Дублированный / Чистый звук
Оригинальная дорожка: английский
Субтитры: английские
Режиссер: Крис Бак, Дженнифер Ли
В ролях: Кристен Белл / Kristen Bell (Anna, озвучка), Идина Мензел / Idina Menzel (Elsa, озвучка), Джонатан Грофф / Jonathan Groff (Kristoff, озвучка), Джош Гад / Josh Gad (Olaf, озвучка), Сантино Фонтана / Santino Fontana (Hans, озвучка), Алан Тьюдик / Alan Tudyk (Duke, озвучка), Киаран Хайндс / Ciaran Hinds (Pabbie, Grandpa, озвучка), Крис Уильямс / Chris Williams (Oaken, озвучка)


Роли дублировали: Наталия Быстрова, Анна Бутурлина, Андрей Бирин, Сергей Пенкин, Дима Билан
Описание: Когда древнее предсказание сбывается и королевство погружается в объятия вечной зимы, трое бесстрашных героев — принцесса Анна, отважный Кристофф и его верный олень Свен — отправляются в горы, чтобы найти сестру Анны, Эльзу, которая может снять со страны леденящее заклятие. По пути их ждет множество увлекательных сюрпризов и захватывающих приключений: встреча с мистическими троллями, знакомство с очаровательным снеговиком по имени Олаф, горные вершины покруче Эвереста и магия в каждой снежинке. Анне и Кристоффу предстоит сплотиться и противостоять могучей стихии, чтобы спасти королевство и тех, кто им дорог…
IMDB @ 8.0 | Кинопоиск @ 8.1 | Сэмпл
Качество: BDRip 720p (Энкод Sparks)
Формат: MKV
Видео: AVC, 3068 Кбит/с, 1280x568
Аудио: Русский (AC3, 2 ch, 384 kbps), Английский (DTS, 6 ch, 1510 kbps)
Субтитры: srt
Раздача от


бщее
Уникальный идентификатор : 229875701691214278873195605121657159521 (0xACF07321FDBBAFE1AB690F5204633F61)
Полное имя : D:\@Tapochek\Frozen.2013.720p.bluray.x264.rus.eng.sub@tapochek.net.mkv
Формат : Matroska
Версия формата : Version 2
Размер файла : 3,55 Гбайт
Продолжительность : 1 ч. 42 м.
Общий поток : 4971 Кбит/сек
Название фильма : L@tapochek.net: Холодное сердце / Frozen [2013]
Дата кодирования : UTC 2014-02-27 07:15:54
Программа кодирования : mkvmerge v3.2.0 ('Beginnings') built on Feb 12 2010 16:46:17
Библиотека кодирования : libebml v0.7.9 + libmatroska v0.8.1

Видео
Идентификатор : 1
Формат : AVC
Формат/Информация : Advanced Video Codec
Профиль формата : High@L4.1
Параметр CABAC формата : Да
Параметр ReFrames формата : 5 кадров
Идентификатор кодека : V_MPEG4/ISO/AVC
Продолжительность : 1 ч. 42 м.
Битрейт : 3076 Кбит/сек
Ширина : 1280 пикселей
Высота : 568 пикселей
Соотношение сторон : 2,25:1
Режим частоты кадров : Постоянный
Частота кадров : 23,976 кадра/сек
Цветовое пространство : YUV
Субдискретизация насыщенности : 4:2:0
Битовая глубина : 8 бит
Тип развёртки : Прогрессивная
Бит/(Пиксели*Кадры) : 0.176
Размер потока : 2,13 Гбайт (60%)
Библиотека кодирования : x264 core 140 r2377 1ca7bb9
Настройки программы : cabac=1 / ref=5 / deblock=1:0:0 / analyse=0x3:0x133 / me=umh / subme=7 / psy=1 / psy_rd=1.00:0.00 / mixed_ref=1 / me_range=16 / chroma_me=1 / trellis=1 / 8x8dct=1 / cqm=0 / deadzone=21,11 / fast_pskip=0 / chroma_qp_offset=-2 / threads=18 / lookahead_threads=3 / sliced_threads=0 / nr=0 / decimate=1 / interlaced=0 / bluray_compat=0 / constrained_intra=0 / bframes=3 / b_pyramid=2 / b_adapt=1 / b_bias=0 / direct=1 / weightb=1 / open_gop=0 / weightp=2 / keyint=250 / keyint_min=23 / scenecut=40 / intra_refresh=0 / rc_lookahead=40 / rc=2pass / mbtree=1 / bitrate=3076 / ratetol=1.0 / qcomp=0.60 / qpmin=0 / qpmax=69 / qpstep=4 / cplxblur=20.0 / qblur=0.5 / ip_ratio=1.40 / aq=1:1.00
Язык : English
Default : Нет
Forced : Нет

Аудио #1
Идентификатор : 2
Формат : AC-3
Формат/Информация : Audio Coding 3
Расширение режима : CM (complete main)
Параметр Endianness формата : Big
Идентификатор кодека : A_AC3
Продолжительность : 1 ч. 42 м.
Вид битрейта : Постоянный
Битрейт : 384 Кбит/сек
Каналы : 2 канала
Расположение каналов : Front: L R
Частота : 48,0 КГц
Битовая глубина : 16 бит
Метод сжатия : С потерями
Размер потока : 281 Мбайт (8%)
Заголовок : Дубляж
Язык : Russian
Default : Да
Forced : Нет

Аудио #2
Идентификатор : 3
Формат : DTS
Формат/Информация : Digital Theater Systems
Режим : 16
Параметр Endianness формата : Big
Идентификатор кодека : A_DTS
Продолжительность : 1 ч. 42 м.
Вид битрейта : Постоянный
Битрейт : 1509 Кбит/сек
Каналы : 6 каналов
Расположение каналов : Front: L C R, Side: L R, LFE
Частота : 48,0 КГц
Битовая глубина : 24 бит
Метод сжатия : С потерями
Задержка видео : 11 мс.
Размер потока : 1,08 Гбайт (30%)
Заголовок : Оригинал
Язык : English
Default : Нет
Forced : Нет

Текст
Идентификатор : 4
Формат : UTF-8
Идентификатор кодека : S_TEXT/UTF8
Идентификатор кодека/Информация : UTF-8 Plain Text
Язык : English
Default : Да
Forced : Нет

Меню
00:00:00.000 : en:00:00:00.000
00:05:59.818 : en:00:05:59.818
00:11:37.947 : en:00:11:37.947
00:19:53.734 : en:00:19:53.734
00:31:03.195 : en:00:31:03.195
00:38:39.484 : en:00:38:39.484
00:44:21.284 : en:00:44:21.284
00:50:51.507 : en:00:50:51.507
00:57:48.381 : en:00:57:48.381
01:02:57.399 : en:01:02:57.399
01:09:36.047 : en:01:09:36.047
01:13:34.869 : en:01:13:34.869
01:18:07.599 : en:01:18:07.599
01:22:33.740 : en:01:22:33.740
01:27:10.809 : en:01:27:10.809
01:32:33.506 : en:01:32:33.506
info [Профиль]  [ЛС] 

PRO93

Пол: Пол:Муж

Стаж: 3 года 9 месяцев

Сообщений: 53

Россия
Рейтинг

post 27-Фев-2014 16:11 (спустя 4 часа) [-]1[+]

[Цитировать] 

Ждал данный релиз. Спасибо!

_________________
Плохие новости, народ: психованная теперь знает пароль. Мартышлюшка своё отработала.
info [Профиль]  [ЛС] 

Ritsu

Пол: Пол:Муж

Стаж: 5 лет 5 месяцев

Сообщений: 856

Австралия
Рейтинг

post 27-Фев-2014 20:31 (спустя 4 часа) [-]4[+]

[Цитировать] 

Поменяйте скриншоты, они слишком спойлерные. Особенно, последний Смеюсь

_________________
Флудите вместе с Рицу и будет вам счастье! ^__^

"...Зажжем рок в этой дыре!.."
info [Профиль]  [ЛС] 

Yetiorel

Пол: Пол:Муж

Стаж: 6 лет 7 месяцев

Сообщений: 63

Россия
Рейтинг

post 27-Фев-2014 21:32 (спустя 1 час) [-]0[+]

[Цитировать] 

Офигенски! Лучший мультфильм за очень долгое время! Спасибо за раздачу!
info [Профиль]  [ЛС] 

Supostat

Пол: Пол:Муж

Стаж: 5 лет 4 месяца

Сообщений: 27

Украина
Рейтинг

post 01-Мар-2014 02:01 (спустя 1 день 4 часа) [-]1[+]

[Цитировать] 

Я помню про монастырь и уставы, но не могли бы добавить/выложить отдельно украинскую озвучку? Если есть.
info [Профиль]  [ЛС] 

Ritsu

Пол: Пол:Муж

Стаж: 5 лет 5 месяцев

Сообщений: 856

Австралия
Рейтинг

post 01-Мар-2014 03:26 (спустя 1 час 25 минут) [-]0[+]

[Цитировать] 

Supostat
Монастырь и уставы? :О

_________________
Флудите вместе с Рицу и будет вам счастье! ^__^

"...Зажжем рок в этой дыре!.."
info [Профиль]  [ЛС] 

LeeNTien

Пол: Пол:Муж

Стаж: 5 лет 1 месяц

Сообщений: 180

Великобритания
Рейтинг

post 02-Мар-2014 00:50 (спустя 21 час) [-]0[+]

[Цитировать] 

Ritsu писал(а):

Supostat
Монастырь и уставы? :О
"В чужой монастырь со своим уставом не лезут"
kolob_107

_________________
Вся вселенная - лишь вечная и бесконечная энергия, а мы - неотделимые и невыделяемые её составляющие...
info [Профиль]  [ЛС] 

Nanarock

Пол: Пол:Жен

Стаж: 4 года 6 месяцев

Сообщений: 7

Россия
Рейтинг

post 03-Мар-2014 20:47 (спустя 1 день 19 часов) [-]0[+]

[Цитировать] 

Встаньте, пожалуйста, на раздачу.
Заранее спасибо!

добавлено спустя 12 минут 25 секунд:

Премного Вас благодарю Подмигиваю

_________________
No good if two minds in one body control.
info [Профиль]  [ЛС] 

punisher509

Пол: Пол:Муж

Стаж: 4 года 7 месяцев

Сообщений: 56

СССР
Рейтинг

post 05-Мар-2014 11:21 (спустя 1 день 14 часов) [-]0[+]

[Цитировать] 

Действительно хороший,добрый мультфильм) На мюзикл похож))
info [Профиль]  [ЛС] 

Lanxorn

Пол: Пол:Муж

Стаж: 3 года 9 месяцев

Сообщений: 30

Россия
Рейтинг

post 08-Мар-2014 00:24 (спустя 2 дня 13 часов) [-]0[+]

[Цитировать] 

punisher509 писал(а):

Действительно хороший,добрый мультфильм) На мюзикл похож))
Мультфильм в старых традициях. Раньше Дисней и снимал мультфильм-мюзикл. Посмотрите "Алиса в стране чудес", "Красавица и чудовище", "Аладдин", думаю вам понравится Улыбаюсь
info [Профиль]  [ЛС] 

post 03-Апр-2014 12:20 (спустя 26 дней) [-]0[+]

Топик был перенесен из форума DVD, HD DVD, Blu-ray, HD Rips, Web-DL в форум Зарубежное кино | HD Rips

BZzz
 

Dessa

Пол: Пол:Муж

Стаж: 5 лет 1 месяц

Сообщений: 79

Россия
Рейтинг

post 03-Июн-2014 22:48 (спустя 2 месяца 26 дней) [-]0[+]

[Цитировать] 

очень хороший мультик! незамысловатый,добрый,красивый,для всех возрастов)
info [Профиль]  [ЛС] 

post 25-Июн-2014 10:45 (спустя 21 день) [-]0[+]

Топик был перенесен из форума Зарубежное кино | HD Rips в форум Мультфильмы (HD Video)

L
 
Показать сообщения:    
Ответить на тему

Текущее время: 05-Дек 20:41

Часовой пояс: GMT + 4



Вы не можете начинать темы
Вы не можете отвечать на сообщения
Вы не можете редактировать свои сообщения
Вы не можете удалять свои сообщения
Вы не можете голосовать в опросах
Вы не можете прикреплять файлы к сообщениям
Вы не можете скачивать файлы