Ошибка

Храброе сердце / Ritter Rost - Eisenhart und voll verbeult (Томас Боденштайн, Хьюберт Вейланд, Нина Велс) [2013, мультфильм, приключения, семейный, HDRip]

Ответить на тему
 
Автор Сообщение

BZzz

Пол: Пол:Муж

Стаж: 5 лет 1 месяц

Сообщений: 3647

Россия
Рейтинг

post 24-Фев-2014 22:42 0[+]

[Цитировать] 

Храброе сердце / Ritter Rost - Eisenhart und voll verbeult
«Приключения в тридесятом королевстве»




Год выпуска: 2013
Страна: Германия
Жанр: мультфильм, приключения, семейный
Продолжительность: 01:23:58
Перевод: Профессиональный (дублированный)[чистый звук]

Режиссер: Томас Боденштайн, Хьюберт Вейланд, Нина Велс

В ролях: Рик Каваниан (Rick Kavanian), Каролин Кебекус (Carolin Kebekus), Кристоф Мария Хербст (Christoph Maria Herbst), Том Герхардт (Tom Gerhardt), Детлеф Редингер (Detlev Redinger), Дастин Земмельрогге (Dustin Semmelrogge), Хартмут Нойгебауер (Hartmut Neugebauer), Ульрих Фрэнк (Ulrich Frank), Пьер Питерс-Арнольдс (Pierre Peters-Arnolds), Анита Хёфер (Anita Hofer), Изабелла Лейхт (Isabella Leicht), Shirin Lotze, Антье Николай (Antje Nicolai)

Описание: В одном сказочном королевстве, где есть мудрый король, прекрасная принцесса и храбрый рыцарь, как это всегда бывает в сказках, появился хитрый и коварный злодей, задумавший стать новым правителем. Единственный кто может помешать его планам — находчивый рыцарь Расти. Пусть пока у него не все получается, и многие не воспринимают его всерьез, он обязательно станет настоящим героем и вместе со своими верными друзьями спасет королевство.

Сборы в России: $139 968



Качество: HDRip
Формат: AVI
Видео кодек: XviD
Аудио кодек: AC3
Видео: 720x400 (16:9), 23.976 fps, XviD, 1 937 Kbps
Аудио #1: AC3, 384 Kbps, 48.0 KHz, 2 ch
General
Complete name : Hrabroe.Serdce.2013.D.HDRip.avi
Format : AVI
Format/Info : Audio Video Interleave
File size : 1.37 GiB
Duration : 1h 23mn
Overall bit rate : 2 330 Kbps
Writing application : VirtualDubMod 1.5.10.2 (build 2540/release)
Writing library : VirtualDubMod build 2540/release

Video
ID : 0
Format : MPEG-4 Visual
Format profile : Advanced Simple@L5
Format settings, BVOP : Yes
Format settings, QPel : No
Format settings, GMC : No warppoints
Format settings, Matrix : Default (MPEG)
Codec ID : XVID
Codec ID/Hint : XviD
Duration : 1h 23mn
Bit rate : 1 937 Kbps
Width : 720 pixels
Height : 400 pixels
Display aspect ratio : 16:9
Frame rate : 23.976 fps
Color space : YUV
Chroma subsampling : 4:2:0
Bit depth : 8 bits
Scan type : Progressive
Bits/(Pixel*Frame) : 0.280
Stream size : 1.14 GiB (83%)
Writing library : XviD 1.2.1 (UTC 2008-12-04)

Audio
ID : 1
Format : AC-3
Format/Info : Audio Coding 3
Mode extension : CM (complete main)
Codec ID : 2000
Duration : 1h 23mn
Bit rate mode : Constant
Bit rate : 384 Kbps
Channel(s) : 2 channels
Channel positions : Front: L R
Sampling rate : 48.0 KHz
Bit depth : 16 bits
Stream size : 231 MiB (16%)
Alignment : Split accross interleaves
Interleave, duration : 42 ms (1.00 video frame)
Interleave, preload duration : 500 ms
info [Профиль]  [ЛС] 

post 02-Апр-2014 14:04 (спустя 1 месяц 5 дней) [-]0[+]

Топик был перенесен из форума Rips в форум Зарубежные полнометражные мультфильмы

BZzz
 
Показать сообщения:    
Ответить на тему

Текущее время: 09-Дек 17:40

Часовой пояс: GMT + 4



Вы не можете начинать темы
Вы не можете отвечать на сообщения
Вы не можете редактировать свои сообщения
Вы не можете удалять свои сообщения
Вы не можете голосовать в опросах
Вы не можете прикреплять файлы к сообщениям
Вы не можете скачивать файлы