Ошибка

До окончания фрилича осталось:


Врата Штейна: Область загрузки дежа вю / Steins;Gate: Fuka Ryouiki no Deja vu [Movie][2013][триллер, фантастика, драма][BDRip][720p][Любительский (JAP+SUB)]

Ответить на тему
 
Автор Сообщение

L

Пол: Пол:Муж

Стаж: 6 лет 8 месяцев

Сообщений: 10838

Украина
Рейтинг

post 21-Фев-2014 11:23 0[+]

[Цитировать] 

Врата Штейна (фильм) / Gekijouban Steins;Gate: Fuka Ryouiki no Deja vu

Страна: Япония
Год выпуска: 2013 г.
Жанр: триллер, фантастика, драма
Тип: Movie
Продолжительность: 90 мин.
Режиссер: Вакабаяси Кандзи
Студия: White Fox
Озвучивание:
  • Любительское (двухголосое) - loster01 & Emeri
      Перевод: Stan WarHammer, Nesitach
  • Любительское (двухголосое) - Zendos & Eladiel
      Перевод: Stan WarHammer, Nesitach
Субтитры:
  • Firegorn-Team & CAMELIASUBS
      Перевод песен: Anton_aviator; Редактор/Тайм-код/Перевод песен/Оформление: LeoDreaM, Дядюшка Хоттабыч; Редактор/Тайм-код: Ms.Excess; Редактор/Оформление: Лилия Де-Франц
  • Sa4ko aka Kiyoso & Zenobian
      Переводчик/Перевод песен/Оформление: Sa4ko aka Kiyoso; Редактор: Zenobian
  • Stan WarHammer & Nesitach
      Переводчик: Nesitach; Редактор/Тайм-код/Оформление: Stan WarHammer
  • Xome4OK & Chidry
      Перевод: xome4ok; Тайминг: Chidry
  • WhyNot
      Английские

Описание: Год назад Окабе Ринтаро удалось стабилизировать мировую линию, в которой ни один из его друзей не погибает. Однако многочисленные путешествия во времени ,которые он тогда совершил, привели к возникновению множества побочных эффектов. Накопившись, они вызвали исчезновение Ринтаро из этого мира. И только его девушка Макисэ помнит о нём. Будучи талантливым физиком, она начинает искать способы вернуть любимого назад.

Доп. информация: Информационные ссылки: AniDB || World Art || MAL
Качество: BDRip
Тип релиза: Без хардсаба
Формат видео: MKV
Релиз/Автор рипа: Project_2501
Видео: H.264, 1280x720, ~2 387 Kbps, 23,976 fps, 10 bit
Аудио #1: AC3, 320 Kbps, 48.0 KHz, 2ch, JP
Аудио #2: AC3, 320 Kbps, 48.0 KHz, 2ch, RU (внешним файлом) - loster01 & Emeri
Аудио #3: AC3, 320 Kbps, 48.0 KHz, 2ch, RU (внешним файлом) - Zendos & Eladiel
Субтитры #1-4: ASS, RU (внешним файлом)
Субтитры #5: ASS, EN (внешним файлом)
General
Unique ID : 245227875757520011358789908415544512448 (0xB87D2BC0E3572B258EF7E2E148574FC0)
Complete name : D:\Загрузки\Раздачи\[Project_2501] Steins;Gate Fuka Ryouiki no Deja vu\[Project_2501] Gekijouban Steins;Gate Fuka Ryouiki no Deja vu (BDRip 1280x720 x264 AC3).mkv
Format : Matroska
Format version : Version 4 / Version 2
File size : 1.42 GiB
Duration : 1h 30mn
Overall bit rate : 2 255 Kbps
Encoded date : UTC 2014-01-15 18:23:10
Writing application : mkvmerge v6.7.0 ('Back to the Ground') 64bit built on Jan 8 2014 15:10:52
Writing library : libebml v1.3.0 + libmatroska v1.4.1

Video
ID : 1
Format : AVC
Format/Info : Advanced Video Codec
Format profile : High 10@L5.0
Format settings, CABAC : Yes
Format settings, ReFrames : 16 frames
Codec ID : V_MPEG4/ISO/AVC
Duration : 1h 30mn
Bit rate : 1 890 Kbps
Width : 1 280 pixels
Height : 720 pixels
Display aspect ratio : 16:9
Frame rate mode : Constant
Frame rate : 23.976 fps
Color space : YUV
Chroma subsampling : 4:2:0
Bit depth : 10 bits
Scan type : Progressive
Bits/(Pixel*Frame) : 0.086
Stream size : 1.19 GiB (84%)
Writing library : x264 core 138 r2358 9e941d1
Encoding settings : cabac=1 / ref=16 / deblock=1:0:0 / analyse=0x3:0x133 / me=umh / subme=10 / psy=1 / psy_rd=1.00:0.00 / mixed_ref=1 / me_range=24 / chroma_me=1 / trellis=2 / 8x8dct=1 / cqm=0 / deadzone=21,11 / fast_pskip=1 / chroma_qp_offset=-2 / threads=12 / lookahead_threads=2 / sliced_threads=0 / nr=0 / decimate=1 / interlaced=0 / bluray_compat=0 / constrained_intra=0 / bframes=8 / b_pyramid=2 / b_adapt=2 / b_bias=0 / direct=3 / weightb=1 / open_gop=0 / weightp=2 / keyint=240 / keyint_min=23 / scenecut=40 / intra_refresh=0 / rc_lookahead=60 / rc=crf / mbtree=1 / crf=16.0 / qcomp=0.60 / qpmin=0 / qpmax=81 / qpstep=4 / ip_ratio=1.40 / aq=1:1.00
Language : English
Default : Yes
Forced : No

Audio
ID : 2
Format : AC-3
Format/Info : Audio Coding 3
Mode extension : CM (complete main)
Format settings, Endianness : Big
Codec ID : A_AC3
Duration : 1h 30mn
Bit rate mode : Constant
Bit rate : 320 Kbps
Channel count : 6 channels
Channel positions : Front: L C R, Side: L R, LFE
Sampling rate : 48.0 KHz
Bit depth : 16 bits
Compression mode : Lossy
Stream size : 206 MiB (14%)
Default : Yes
Forced : No
http://tapochek.net/viewtopic.php?t=144830 - Альтернативный перевод и озвучка, меньший объём.
info [Профиль]  [ЛС] 

dr_ray

Пол: Пол:Муж

Стаж: 5 лет 5 месяцев

Сообщений: 73

Франция
Рейтинг

post 21-Фев-2014 15:48 (спустя 4 часа) [-]-5[+]

[Цитировать] 

zbs
otve4au
info [Профиль]  [ЛС] 

Dragon2055

Пол: Пол:Муж

Стаж: 5 лет 5 месяцев

Сообщений: 171

Рейтинг

post 22-Фев-2014 12:06 (спустя 20 часов) [-]0[+]

[Цитировать] 

Фильм разочаровал.
Потому что сюжет сущий идиотизм. После отлично проработанного сериала, где как раз была логика, фильм совершено не о чем. Сплошная болтовня, сопли без намека на экшен и интригу. Сценарист бездарным оказался. То что творится на экране на фантастика не смахивает, смахивает скорее на магию. "из за того что он был не в одной временной линии, его утягивает из идеальной в другую". Ну бред, честно слово. И все его забывают сразу, при этом следы его присутствия остаются. Как же надо обкурится что бы придумать это? Бред чистой воды же....
info [Профиль]  [ЛС] 
Показать сообщения:    
Ответить на тему

Текущее время: 10-Дек 20:40

Часовой пояс: GMT + 4



Вы не можете начинать темы
Вы не можете отвечать на сообщения
Вы не можете редактировать свои сообщения
Вы не можете удалять свои сообщения
Вы не можете голосовать в опросах
Вы не можете прикреплять файлы к сообщениям
Вы не можете скачивать файлы