Ошибка

Демоны старшей школы ТВ-2 / High School DxD New [TV-2] [1-12 из 12] [2013][приключения, комедия, этти][HDTVRip][720p][Любительская (JAP + SUB)]

Ответить на тему
 
Автор Сообщение

L

Пол: Пол:Муж

Стаж: 6 лет 8 месяцев

Сообщений: 10848

Украина
Рейтинг

post 09-Фев-2014 16:47 2[+]

[Цитировать] 

Демоны старшей школы ТВ-2 / High School DxD New TV2

Страна: Япония
Год выпуска: 2013 г.
Выпуск: c 07.07.2013
Жанр: приключения, комедия, этти
Тип: ТВ (12 эп.), 25 мин.
Режиссёр: Янагисава Тэцуя
Автор оригинала: Исибуми Итиэй
Озвучивание: (01-09) Lex & NesTea, (10-12) NIKITOS & NesTea (SHIZA Project) [Sample]
    Работа над звуком и таймингом: Gigantic Guyver
    Работа над переводом: (01-03) HateR fansub Project, (04-12) VanTuz
Субтитры: русские, отдельно
Студия:
Краткое содержание: Главный герой — Иссей Хёдо — туповатый старшеклассник, которого на первом в его жизни свидании убивает девушка. Но вместо того, чтобы почить с миром, Иссей возрождается в облике дьявола, и отныне его долг — служить Риас, дьяволу более высокого класса, которая, к тому же, оказывается самой красивой девушкой в школе. Но вы это и сами знаете. Смотрим продолжение.
Релиз от:
Тип релиза: Без хардсаба
Качество: HDTVRip
Автор рипа: Leopard-Raws
Формат видео: MP4
Наличие линковки: Нет
Видео: x264 [8 bit], 1280х720, ~1950 kbps, 23,976 fps
Аудио : AAC, 192kbps, 48 kHz, 2 ch (в составе контейнера)
Аудио : AAC, 192kbps, 48 kHz, 2 ch
Субтитры :
ASS, SRT (внешним файлом)
Общее
Полное имя : D:\!SHIZA\!Раздачи\[SHIZA Project] High School DxD New TV2 [Lex & NesTea] [HDTVRip]\[SHIZA Project] High School DxD New TV2 [01] [Lex & NesTea].mp4
Формат : MPEG-4
Профиль формата : Base Media
Идентификатор кодека : isom
Размер файла : 406 Мбайт
Продолжительность : 24 м.
Режим общего битрейта : Переменный
Общий поток : 2362 Кбит/сек
Дата кодирования : UTC 2013-07-18 19:14:49
Дата пометки : UTC 2013-07-18 19:14:49
Программа кодирования : Yamb 2.1.0.0 [http://yamb.unite-video.com]

Видео
Идентификатор : 1
Формат : AVC
Формат/Информация : Advanced Video Codec
Профиль формата : High@L4.1
Параметр CABAC формата : Да
Параметр ReFrames формата : 4 кадра
Идентификатор кодека : avc1
Идентификатор кодека/Информация : Advanced Video Coding
Продолжительность : 24 м.
Битрейт : 1973 Кбит/сек
Максимальный битрейт : 11,4 Мбит/сек
Ширина : 1280 пикселей
Высота : 720 пикселей
Соотношение сторон : 16:9
Режим частоты кадров : Постоянный
Частота кадров : 23,976 кадра/сек
Цветовое пространство : YUV
Субдискретизация насыщенности : 4:2:0
Битовая глубина : 8 бит
Тип развёртки : Прогрессивная
Бит/(Пиксели*Кадры) : 0.089
Размер потока : 339 Мбайт (84%)
Заголовок : 264
Библиотека кодирования : x264 core 129 r2245+729M 1a52e03
Настройки программы : cabac=1 / ref=4 / deblock=1:1:-1 / analyse=0x3:0x113 / me=umh / subme=9 / psy=1 / fade_compensate=0.00 / psy_rd=1.00:0.00 / mixed_ref=1 / me_range=24 / chroma_me=1 / trellis=2 / 8x8dct=1 / cqm=0 / deadzone=21,11 / fast_pskip=1 / chroma_qp_offset=-2 / threads=8 / lookahead_threads=1 / sliced_threads=0 / nr=0 / decimate=1 / interlaced=0 / bluray_compat=0 / constrained_intra=0 / fgo=0 / bframes=9 / b_pyramid=2 / b_adapt=2 / b_bias=0 / direct=1 / weightb=1 / open_gop=0 / weightp=2 / keyint=240 / keyint_min=24 / scenecut=40 / intra_refresh=0 / rc=crf / mbtree=0 / crf=18.5 / qcomp=0.72 / qpmin=0 / qpmax=69 / qpstep=4 / ip_ratio=1.40 / pb_ratio=1.30 / aq=1:0.85
Дата кодирования : UTC 2013-07-07 14:56:53
Дата пометки : UTC 2013-07-18 19:16:07
Основные цвета : BT.709
Характеристики трансфера : BT.709
Коэффициенты матрицы : BT.709

Аудио #1
Идентификатор : 2
Формат : AAC
Формат/Информация : Advanced Audio Codec
Профиль формата : LC
Идентификатор кодека : 40
Продолжительность : 24 м.
Вид битрейта : Переменный
Битрейт : 192 Кбит/сек
Максимальный битрейт : 248 Кбит/сек
Каналы : 2 канала
Расположение каналов : Front: L R
Частота : 48,0 КГц
Метод сжатия : С потерями
Размер потока : 33,0 Мбайт (8%)
Заголовок : Lex & NesTea from SHIZA
Язык : Russian
Дата кодирования : UTC 2013-07-18 19:14:53
Дата пометки : UTC 2013-07-18 19:16:07

Аудио #2
Идентификатор : 3
Формат : AAC
Формат/Информация : Advanced Audio Codec
Профиль формата : LC
Идентификатор кодека : 40
Продолжительность : 24 м.
Вид битрейта : Переменный
Битрейт : 192 Кбит/сек
Максимальный битрейт : 248 Кбит/сек
Каналы : 2 канала
Расположение каналов : Front: L R
Частота : 48,0 КГц
Метод сжатия : С потерями
Размер потока : 32,9 Мбайт (8%)
Язык : Japanese
Дата кодирования : UTC 2013-07-18 19:14:54
Дата пометки : UTC 2013-07-18 19:16:07
01. Снова это дурное предчувствие!
02. А вот и Святой Меч!
03. Я уничтожу Святые Мечи!
04. Появление грозного врага!
05. Разборка в академии Кё
06. Вперёд, клуб исследования оккультизма!
07. Лето! Купальники! Проблемы!
08. Родительский день начинается!
09. Я получил подчинённого!
10. Куда не ткнись, везде тупик!
11. Собрание начинается!
12. Столкновение небесных драконов!

info [Профиль]  [ЛС] 
Показать сообщения:    
Ответить на тему

Текущее время: 11-Дек 14:04

Часовой пояс: GMT + 4



Вы не можете начинать темы
Вы не можете отвечать на сообщения
Вы не можете редактировать свои сообщения
Вы не можете удалять свои сообщения
Вы не можете голосовать в опросах
Вы не можете прикреплять файлы к сообщениям
Вы не можете скачивать файлы