Ошибка

Облачно... 2: Месть ГМО / Cloudy with a Chance of Meatballs 2 (Коуди Камерон, Крис Пирн) [2013, мультфильм, фантастика, фэнтези, комедия, семейный, HDRip]

Ответить на тему
 
Автор Сообщение

Linuxoid

Пол: Пол:Муж

Стаж: 6 лет

Сообщений: 284

Украина
Рейтинг

post 09-Фев-2014 00:51 0[+]

[Цитировать] 

Облачно... 2: Месть ГМО / Cloudy with a Chance of Meatballs 2
«Something big was leftover»


Год выпуска: 2013
Страна: США
Жанр: мультфильм, фантастика, фэнтези, комедия, семейный
Продолжительность: 01:34:49
Перевод: Профессиональный (дублированный)

Режиссер: Коуди Камерон, Крис Пирн
Сценарий: Эрика Ривинойя, Джон Фрэнсис Дейли, Джонатан М. Голдштейн, ...
Продюсер: Кирк Бодифелт, Фил Лорд, Пэм Мэрсден, ...
Композитор : Марк Мазерсбо
Художник: Джастин Томпсон, Дэвид Блейч
Монтаж: Роберт Фишер мл., Стэн Уэбб

В ролях: Билл Хейдер / Bill Hader (Flint Lockwood, озвучка), Анна Фэрис / Anna Faris (Sam Sparks, озвучка), Джеймс Каан / James Caan (Tim Lockwood, озвучка), Уилл Форте / Will Forte (Chester V, озвучка), Энди Сэмберг / Andy Samberg (Brent McHale, озвучка), Бенджамин Брэтт / Benjamin Bratt (Manny, озвучка)


Описание: Все жители острова Поплавок покинули родной дом после событий предыдущего мультфильма. Главный герой Флинт Локвуд теперь работает в компании The Live Corp на своего кумира Честера. Но ему придется оставить свой пост когда он узнает, что его печально-известная машина все ещё работает и производит на свет опасных гибридов. Флинту предстоит ещё раз спасти мир и не дать коварной машине распространить громадную еду по всему миру.

Бюджет: $78 000 000
Сборы в США: $119 151 927
Сборы в мире: + $141 700 000 = $260 851 927 сборы
Сборы в России: $11 705 375
Зрители: Мексика 2.96 млн , Бразилия 2.44 млн , Россия 1.86 млн
Премьера (мир): 26 сентября 2013, ...
Премьера (РФ): 24 октября 2013, «WDSSPR» 3D
Релиз на DVD: 11 февраля 2014, «Columbia/Sony», ...
Релиз на Blu-Ray: 11 февраля 2014, «Columbia/Sony», ...
Рейтинг MPAA: Рекомендуется присутствие родителей
Раздача от:
Качество: HDRip
Формат: MPEG-4
Видео кодек: AVC
Аудио кодек: AAC LC
Видео: 480x272 (16:9), 23.976 fps, AVC, 640 Kbps
Аудио: AAC LC, 129 Kbps, 48.0 KHz, 2 ch
· Вместо Мистера Ти Эрла озвучил Терри Крюс. Мистеру Ти предлагали озвучить этого персонажа в сиквеле, но он отказался. Большинство движений и мимика этого персонажа были взяты с экранного образа Терри Крюса.

Код:

General
Complete name                    : Oblachno...2.Mest'.GMO.2013.HDRip.mp4
Format                           : MPEG-4
Format profile                   : Base Media
Codec ID                         : isom
File size                        : 524 MiB
Duration                         : 1h 34mn
Overall bit rate                 : 772 Kbps
Encoded date                     : UTC 2014-02-07 19:51:50
Tagged date                      : UTC 2014-02-07 19:51:50

Video
ID                               : 1
Format                           : AVC
Format/Info                      : Advanced Video Codec
Format profile                   : Main@L3.0
Format settings, CABAC           : Yes
Format settings, ReFrames        : 2 frames
Codec ID                         : avc1
Codec ID/Info                    : Advanced Video Coding
Duration                         : 1h 34mn
Bit rate mode                    : Variable
Bit rate                         : 640 Kbps
Maximum bit rate                 : 3 255 Kbps
Width                            : 480 pixels
Height                           : 272 pixels
Display aspect ratio             : 16:9
Frame rate mode                  : Constant
Frame rate                       : 23.976 fps
Color space                      : YUV
Chroma subsampling               : 4:2:0
Bit depth                        : 8 bits
Scan type                        : Progressive
Bits/(Pixel*Frame)               : 0.204
Stream size                      : 434 MiB (83%)
Writing library                  : x264 core 65 r999kMod cc51047
Encoding settings                : cabac=1 / ref=2 / deblock=1:0:0 / analyse=0x1:0x131 / me=umh / subme=6 / psy_rd=1.0:0.0 / mixed_ref=1 / me_range=16 / chroma_me=1 / trellis=1 / 8x8dct=0 / cqm=0 / deadzone=21,11 / chroma_qp_offset=-2 / threads=4 / thread_queue=4 / nr=0 / decimate=1 / mbaff=0 / bframes=3 / b_pyramid=0 / b_adapt=1 / b_bias=0 / direct=3 / wpredb=1 / keyint=250 / keyint_min=25 / scenecut=40(pre) / rc=2pass / bitrate=640 / ratetol=1.0 / qcomp=0.60 / qpmin=10 / qpmax=51 / qpstep=4 / cplxblur=20.0 / qblur=0.5 / ip_ratio=1.40 / pb_ratio=1.30 / aq=1:1.00
Encoded date                     : UTC 2014-02-07 19:51:50
Tagged date                      : UTC 2014-02-07 19:52:02

Audio
ID                               : 2
Format                           : AAC
Format/Info                      : Advanced Audio Codec
Format version                   : Version 4
Format profile                   : LC
Format settings, SBR             : No
Codec ID                         : 40
Duration                         : 1h 34mn
Bit rate mode                    : Variable
Bit rate                         : 129 Kbps
Maximum bit rate                 : 172 Kbps
Channel(s)                       : 2 channels
Channel positions                : Front: L R
Sampling rate                    : 48.0 KHz
Stream size                      : 87.5 MiB (17%)
Encoded date                     : UTC 2014-02-07 19:52:01
Tagged date                      : UTC 2014-02-07 19:52:02
info [Профиль]  [ЛС] 
Показать сообщения:    
Ответить на тему

Текущее время: 09-Дек 09:53

Часовой пояс: GMT + 4



Вы не можете начинать темы
Вы не можете отвечать на сообщения
Вы не можете редактировать свои сообщения
Вы не можете удалять свои сообщения
Вы не можете голосовать в опросах
Вы не можете прикреплять файлы к сообщениям
Вы не можете скачивать файлы