Ошибка

Последний рубеж / Homefront (Гэри Фледер) [2013, боевик, криминал, WEB-DLRip]

Ответить на тему
 
Автор Сообщение

Linuxoid

Пол: Пол:Муж

Стаж: 6 лет

Сообщений: 284

Украина
Рейтинг

post 08-Фев-2014 20:51 0[+]

[Цитировать] 

Последний рубеж / Homefront
«На что ты готов ради защиты своей семьи?»


Год выпуска: 2013
Страна: США
Жанр: боевик, криминал слова
Продолжительность: 01:31:45
Перевод: Профессиональный (дублированный)

Режиссер: Гэри Фледер
Сценарий: Сильвестр Сталлоне, Чак Логан
Продюсер: Боаз Дэвидсон, Марк Гилл, Ави Лернер, ...
Оператор: Тео ван де Санде
Композитор : Марк Айшем
Художник: Грег Берри, А. Тодд Холлэнд, Келли Джонс, ...
Монтаж: Падрейк МакКинли

В ролях: Джейсон Стэйтем / Jason Statham (Phil Broker), Джеймс Франко / James Franco (Morgan «Gator» Bodine), Изабела Видович / Izabela Vidovic (Maddy Broker), Вайнона Райдер / Winona Ryder (Sheryl Marie Mott), Кейт Босворт / Kate Bosworth (Cassie Bodine Klum), Клэнси Браун / Clancy Brown (Sheriff Keith Rodrigue)


Описание: Фил Брокер — бывший агент из отдела борьбы с наркотиками. Фил переезжает в небольшой город вместе с семьей в надежде забыть прошлое. Но он узнает, что город только со стороны кажется тихим и спокойным местом, на самом деле он кишит насилием, наркотиками, а всем этим заправляет злодей по кличке Аллигатор…

Бюджет: $22 000 000
Сборы в США: $20 158 898
Сборы в мире: + $11 200 000 = $31 358 898 сборы
Сборы в России: $2 694 446
Зрители: Франция 567.9 тыс. , Россия 385 тыс. , Германия 160.1 тыс.
Премьера (мир): 27 ноября 2013, ...
Премьера (РФ): 28 ноября 2013, «Наше Кино»
Рейтинг MPAA: Лицам до 17 лет обязательно присутствие взрослого
Раздача от:
Качество: WEB-DLRip
Формат: MPEG-4
Видео кодек: AVC
Аудио кодек: AAC LC
Видео: 480x272 (16:9), 25.000 fps, AVC, 640 Kbps
Аудио: Аудио #1: AAC LC, 129 Kbps, 48.0 KHz, 2 ch
· Сценарий был написан много лет назад Сильвестром Сталлоне, для него же самого, но так и не был реализован.

Код:

General
Complete name                    : Posledniy.Rubej.2013.D.WEB-DLRip.mp4
Format                           : MPEG-4
Format profile                   : Base Media
Codec ID                         : isom
File size                        : 507 MiB
Duration                         : 1h 31mn
Overall bit rate                 : 772 Kbps
Encoded date                     : UTC 2014-02-06 15:04:24
Tagged date                      : UTC 2014-02-06 15:04:24

Video
ID                               : 1
Format                           : AVC
Format/Info                      : Advanced Video Codec
Format profile                   : Main@L3.0
Format settings, CABAC           : Yes
Format settings, ReFrames        : 2 frames
Codec ID                         : avc1
Codec ID/Info                    : Advanced Video Coding
Duration                         : 1h 31mn
Bit rate mode                    : Variable
Bit rate                         : 640 Kbps
Maximum bit rate                 : 2 128 Kbps
Width                            : 480 pixels
Height                           : 272 pixels
Display aspect ratio             : 16:9
Frame rate mode                  : Constant
Frame rate                       : 25.000 fps
Color space                      : YUV
Chroma subsampling               : 4:2:0
Bit depth                        : 8 bits
Scan type                        : Progressive
Bits/(Pixel*Frame)               : 0.196
Stream size                      : 420 MiB (83%)
Writing library                  : x264 core 65 r999kMod cc51047
Encoding settings                : cabac=1 / ref=2 / deblock=1:0:0 / analyse=0x1:0x131 / me=umh / subme=6 / psy_rd=1.0:0.0 / mixed_ref=1 / me_range=16 / chroma_me=1 / trellis=1 / 8x8dct=0 / cqm=0 / deadzone=21,11 / chroma_qp_offset=-2 / threads=4 / thread_queue=4 / nr=0 / decimate=1 / mbaff=0 / bframes=3 / b_pyramid=0 / b_adapt=1 / b_bias=0 / direct=3 / wpredb=1 / keyint=250 / keyint_min=25 / scenecut=40(pre) / rc=2pass / bitrate=640 / ratetol=1.0 / qcomp=0.60 / qpmin=10 / qpmax=51 / qpstep=4 / cplxblur=20.0 / qblur=0.5 / ip_ratio=1.40 / pb_ratio=1.30 / aq=1:1.00
Encoded date                     : UTC 2014-02-06 15:04:24
Tagged date                      : UTC 2014-02-06 15:04:37

Audio
ID                               : 2
Format                           : AAC
Format/Info                      : Advanced Audio Codec
Format version                   : Version 4
Format profile                   : LC
Format settings, SBR             : No
Codec ID                         : 40
Duration                         : 1h 31mn
Bit rate mode                    : Variable
Bit rate                         : 129 Kbps
Maximum bit rate                 : 154 Kbps
Channel(s)                       : 2 channels
Channel positions                : Front: L R
Sampling rate                    : 48.0 KHz
Stream size                      : 84.4 MiB (17%)
Encoded date                     : UTC 2014-02-06 15:04:36
Tagged date                      : UTC 2014-02-06 15:04:37
info [Профиль]  [ЛС] 
Показать сообщения:    
Ответить на тему

Текущее время: 05-Дек 08:29

Часовой пояс: GMT + 4



Вы не можете начинать темы
Вы не можете отвечать на сообщения
Вы не можете редактировать свои сообщения
Вы не можете удалять свои сообщения
Вы не можете голосовать в опросах
Вы не можете прикреплять файлы к сообщениям
Вы не можете скачивать файлы