Ошибка

Шоу Уральских пельменей: Смешняги. Ёлочка, беги!. Часть 1 & 2 [2013 г., юмористическое шоу, SATRip]

Ответить на тему
 
Автор Сообщение

Alex Ander

Пол: Пол:Муж

Стаж: 7 лет 5 месяцев

Сообщений: 2379

СССР
Рейтинг

post 08-Фев-2014 10:32 0[+]

[Цитировать] 

Шоу Уральских пельменей: Смешняги. Ёлочка, беги!. Часть 1 & 2

Год выпуска: 2013
Страна: Россия
Жанр: юмористическое шоу
Продолжительность: 2 x ~ 00:49:00

В ролях:
    Дмитрий Брекоткин, Сергей Ершов, Сергей Исаев, Сергей Калугин, Сергей Минеев, Вячеслав Мясников, Сергей Нетиевский, Александр Попов, Андрей Рожков, Дмитрий Соколов, Максим Ярица, Юлия Матюхина-Михалкова


Описание:
    Мы, россияне, ждем Новый год всей страной, всем сердцем, всей печенью. В этот день мы должны забыть обиды и простить долги. Именно поэтому отдел ипотечного кредитования не празднует Новый год. В этот праздник мы все становимся немного детьми: мы все слушаем «старшего» и не хотим спать после 12. Это время чудес! Если вы верите в чудо, то оно обязательно дойдёт до квартиры и будет ночевать дома! Это время героев — как ещё можно назвать людей, которые работают 1-го января?! Это особенная ночь, когда китайский порох наводит в России шорох. В этот вечер дети, чтобы получить телефон Джобса, учат стихи Пушкина! В это праздник мы встречаемся с самыми близкими людьми и превращаемся в самых необычных животных. И, наконец, в новом году только «Уральские пельмени» могут составить конкуренцию мандаринам за праздничным столом, тем более их не нужно чистить, чтобы получить удовольствие — надо всего лишь 31 декабря переключиться на СТС и посмотреть новое шоу Уральских Пельменей «Елочка, БЕГИ!».


Качество: SATRip
Формат: AVI
Видео кодек: DivX
Аудио кодек: MP3
Видео: 1500 Кбит/с, 720x400, 25.000 fps, Bits/(Pixel*Frame): 0.208
Аудио: 2 ch, 128 Кбит/с, 48.0 KHz
General
Complete name : ... \! Смешняги! (Уральские пельмени)\Смешняги (Уральские пельмени) 34. Елочка Беги!\UP.Elochka.Begi.01.SATRip.avi
Format : AVI
Format/Info : Audio Video Interleave
File size : 546 MiB
Duration : 46mn 36s
Overall bit rate : 1 638 Kbps
Writing library : VirtualDub build 32842/release

Video
ID : 0
Format : MPEG-4 Visual
Format settings, BVOP : 1
Format settings, QPel : No
Format settings, GMC : No warppoints
Format settings, Matrix : Default (H.263)
Muxing mode : Packed bitstream
Codec ID : DX50
Codec ID/Hint : DivX 5
Duration : 46mn 36s
Bit rate : 1 500 Kbps
Width : 720 pixels
Height : 400 pixels
Display aspect ratio : 16:9
Frame rate : 25.000 fps
Color space : YUV
Chroma subsampling : 4:2:0
Bit depth : 8 bits
Scan type : Progressive
Compression mode : Lossy
Bits/(Pixel*Frame) : 0.208
Stream size : 500 MiB (92%)
Writing library : DivX 6.8.5 (UTC 2009-08-20)

Audio
ID : 1
Format : MPEG Audio
Format version : Version 1
Format profile : Layer 3
Mode : Joint stereo
Mode extension : MS Stereo
Codec ID : 55
Codec ID/Hint : MP3
Duration : 46mn 36s
Bit rate mode : Constant
Bit rate : 128 Kbps
Channel(s) : 2 channels
Sampling rate : 48.0 KHz
Compression mode : Lossy
Stream size : 42.7 MiB (8%)
Alignment : Split accross interleaves
Interleave, duration : 40 ms (1.00 video frame)
Interleave, preload duration : 500 ms
info [Профиль]  [ЛС] 

kurkah

Пол: Пол:Муж

Стаж: 6 лет 8 месяцев

Сообщений: 111

Россия
Рейтинг

post 09-Фев-2014 00:33 (спустя 14 часов) [-]0[+]

[Цитировать] 

Когда-нибудь появятся пельмени в HD ?
info [Профиль]  [ЛС] 

Alex Ander

Пол: Пол:Муж

Стаж: 7 лет 5 месяцев

Сообщений: 2379

СССР
Рейтинг

post 09-Фев-2014 11:33 (спустя 10 часов) [-]0[+]

[Цитировать] 

сомневаюсь...

_________________
Лучше быть умным и иногда тупить, чем быть тупым и всё время умничать...
info [Профиль]  [ЛС] 
Показать сообщения:    
Ответить на тему

Текущее время: 05-Дек 04:26

Часовой пояс: GMT + 4



Вы не можете начинать темы
Вы не можете отвечать на сообщения
Вы не можете редактировать свои сообщения
Вы не можете удалять свои сообщения
Вы не можете голосовать в опросах
Вы не можете прикреплять файлы к сообщениям
Вы не можете скачивать файлы