Ошибка

Иван Царевич и Серый Волк 2 (Владимир Торопчин) [2013, мультфильм, приключения, семейный, фэнтези, HDRip]

Ответить на тему
 
Автор Сообщение

Linuxoid

Пол: Пол:Муж

Стаж: 6 лет

Сообщений: 284

Украина
Рейтинг

post 05-Фев-2014 21:13 0[+]

[Цитировать] 

Иван Царевич и Серый Волк 2
«Любимые герои, новые приключения»

Год выпуска: 2013
Страна: Россия
Жанр: мультфильм, приключения, семейный, фэнтези
Продолжительность: 01:12:37
Перевод: Оригинал
Режиссер: Владимир Торопчин
Сценарий: Владимир Торопчин, Александр Боярский
Продюсер: Сергей Сельянов, Александр Боярский
Композитор : Михаил Чертищев
Художник: Светлана Дегтярева
Монтаж: Сергей Глезин
В ролях: Никита Ефремов (Иван, озвучка), Татьяна Бунина (Василиса, озвучка), Иван Охлобыстин (Царь, озвучка), Михаил Боярский (Кот Ученый, озвучка), Ирина Рахманова (Лунная лягушка, озвучка), Александр Боярский (Волк, озвучка)

Описание: В Тридевятом царстве, где живут наши герои — тишь, да благодать. Иван женился на Василисе, и «жили они долго и счастливо», да не тут-то было. Иван целыми днями пропадает с Волком на службе — укрепляет рубежи и оборонную мощь, мечтает перевести стрелки часов на семь часов назад, чтобы меньше спать, и больше работать. А Василисе — скучно, как всем девушкам, ей хочется романтики, ну, такой, как в сказках. И тогда она решает организовать свое похищение… Однако, когда такое бывало, что в сказках все получалось так, как задумывалось?
Сборы в мире: $19 180 499 сборы
Сборы в России: $18 895 553 сборы
Зрители: Россия 2.78 млн
Премьера (мир): 26 декабря 2013, ...
Премьера (РФ): 26 декабря 2013, «Наше Кино» 3D
Релиз на DVD: 21 января 2014, «Lizard Cinema Trade», ...
Релиз на Blu-Ray: 4 февраля 2014, «Lizard Cinema Trade», ...
Раздача от:
Качество: HDRip
Формат: MPEG-4
Видео кодек: AVC
Аудио кодек: AAC LC
Видео: 480x272 (16:9), 24.000 fps, AVC, 640 Kbps
Аудио: AAC LC, 128 Kbps, 48.0 KHz, 2 ch

Код:

General
Complete name                    : IVAN.2.2013.HDRip.mp4
Format                           : MPEG-4
Format profile                   : Base Media
Codec ID                         : isom
File size                        : 401 MiB
Duration                         : 1h 12mn
Overall bit rate                 : 771 Kbps
Encoded date                     : UTC 2014-02-04 16:56:51
Tagged date                      : UTC 2014-02-04 16:56:51

Video
ID                               : 1
Format                           : AVC
Format/Info                      : Advanced Video Codec
Format profile                   : Main@L3.0
Format settings, CABAC           : Yes
Format settings, ReFrames        : 2 frames
Codec ID                         : avc1
Codec ID/Info                    : Advanced Video Coding
Duration                         : 1h 12mn
Bit rate mode                    : Variable
Bit rate                         : 640 Kbps
Maximum bit rate                 : 4 939 Kbps
Width                            : 480 pixels
Height                           : 272 pixels
Display aspect ratio             : 16:9
Frame rate mode                  : Constant
Frame rate                       : 24.000 fps
Color space                      : YUV
Chroma subsampling               : 4:2:0
Bit depth                        : 8 bits
Scan type                        : Progressive
Bits/(Pixel*Frame)               : 0.204
Stream size                      : 332 MiB (83%)
Writing library                  : x264 core 65 r999kMod cc51047
Encoding settings                : cabac=1 / ref=2 / deblock=1:0:0 / analyse=0x1:0x131 / me=umh / subme=6 / psy_rd=1.0:0.0 / mixed_ref=1 / me_range=16 / chroma_me=1 / trellis=1 / 8x8dct=0 / cqm=0 / deadzone=21,11 / chroma_qp_offset=-2 / threads=4 / thread_queue=4 / nr=0 / decimate=1 / mbaff=0 / bframes=3 / b_pyramid=0 / b_adapt=1 / b_bias=0 / direct=3 / wpredb=1 / keyint=250 / keyint_min=25 / scenecut=40(pre) / rc=2pass / bitrate=640 / ratetol=1.0 / qcomp=0.60 / qpmin=10 / qpmax=51 / qpstep=4 / cplxblur=20.0 / qblur=0.5 / ip_ratio=1.40 / pb_ratio=1.30 / aq=1:1.00
Encoded date                     : UTC 2014-02-04 16:56:51
Tagged date                      : UTC 2014-02-04 16:56:59

Audio
ID                               : 2
Format                           : AAC
Format/Info                      : Advanced Audio Codec
Format version                   : Version 4
Format profile                   : LC
Format settings, SBR             : No
Codec ID                         : 40
Duration                         : 1h 12mn
Bit rate mode                    : Variable
Bit rate                         : 128 Kbps
Maximum bit rate                 : 183 Kbps
Channel(s)                       : 2 channels
Channel positions                : Front: L R
Sampling rate                    : 48.0 KHz
Stream size                      : 66.6 MiB (17%)
Encoded date                     : UTC 2014-02-04 16:56:58
Tagged date                      : UTC 2014-02-04 16:56:59

info [Профиль]  [ЛС] 
Показать сообщения:    
Ответить на тему

Текущее время: 04-Дек 14:16

Часовой пояс: GMT + 4



Вы не можете начинать темы
Вы не можете отвечать на сообщения
Вы не можете редактировать свои сообщения
Вы не можете удалять свои сообщения
Вы не можете голосовать в опросах
Вы не можете прикреплять файлы к сообщениям
Вы не можете скачивать файлы