Ошибка

Стена / Pink Floyd - The Wall (Алан Паркер / Alan Parker) [1982 г., мюзикл, драма, HDTVRip 1080p]

Ответить на тему
 
Автор Сообщение

alex5075

Пол: Пол:Муж

Стаж: 7 лет 8 месяцев

Сообщений: 233

Россия
Рейтинг

post 03-Фев-2014 18:17 1[+]

[Цитировать] 

Стена / Pink Floyd - The Wall

pic="http://s001.youpic.su/pictures/1391374800/567ad8a0fe849bffdb70c3b5555de352.png"
Год выпуска: 1982
Страна: Великобритания, Metro-Goldwyn-Mayer
Жанр: мюзикл, драма
Продолжительность: 01:35:06
Перевод: Авторский одноголосый (Юрий Сербин)
Язык субтитров: Русские

Режиссер:
  • Алан Паркер, Джералд Скарф


В ролях:
  • Боб Гелдоф, Кристин Харгривз, Джеймс Лоренсон, Элинор Дэвид, Кевин МакКион, Боб Хоскинс, Дэвид Бингэм, Дженни Райт, Алекс МакЭвой, Эллис Дейл


Описание: Все смешалось в номере некоего лос-анджелесского отеля, в котором заперт рок-музыкант Пинк - пространство и время, реальность и кошмар. Каждый кирпич в «Стене» - его чувства, мысли, воспоминания.
Действие фильма основано на двойном альбоме группы «Pink Floyd» - «The Wall», 23 раза получавшем статус платинового и распроданном по всему миру общим тиражом 11,7 миллионов экземпляров.


Качество: HDTVRip 1080p
Формат: MKV
Видео кодек: MPEG-4 AVC
Аудио кодек: AC3
Видео: MPEG-4 AVC, 11.5 Mбит/с, 1852x800, 23.976 кадр/с
Аудио 1: Russian (AC3, 2 ch, 192 Кбит/с) - Авторский одноголосый (Юрий Сербин)
    Аудио 2: English (AC3, 6 ch, 448 Кбит/с)
      (LPCM, 2 ch, 1536 Кбит/с)-отдельно
      Релиз от:
      General
      Unique ID : 246373940961201239293725436188825820907 (0xB959E5216EADEAC69859FE0384011EEB)
      Complete name : F:\Мои фильмы\BD-Rips\Pink Floyd - The Wall\Pink.Floyd.Stena.1982.1080p.CMEGRoup\Pink.Floyd.Stena.1982.1080p.CMEGRoup.mkv
      Format : Matroska
      Format version : Version 4 / Version 2
      File size : 8.07 GiB
      Duration : 1h 35mn
      Overall bit rate : 12.1 Mbps
      Movie name : CMEGRoup
      Encoded date : UTC 2013-06-24 05:20:55
      Writing application : mkvmerge v6.1.0 ('Old Devil') built on Mar 2 2013 14:32:37
      Writing library : libebml v1.3.0 + libmatroska v1.4.0

      Video
      ID : 1
      Format : AVC
      Format/Info : Advanced Video Codec
      Format profile : High@L4.1
      Format settings, CABAC : Yes
      Format settings, ReFrames : 4 frames
      Codec ID : V_MPEG4/ISO/AVC
      Duration : 1h 35mn
      Bit rate : 11.5 Mbps
      Width : 1 852 pixels
      Height : 800 pixels
      Display aspect ratio : 2.35:1
      Frame rate : 23.976 fps
      Color space : YUV
      Chroma subsampling : 4:2:0
      Bit depth : 8 bits
      Scan type : Progressive
      Bits/(Pixel*Frame) : 0.324
      Stream size : 7.48 GiB (93%)
      Writing library : x264 core 133 r2334 a3ac64b
      Encoding settings : cabac=1 / ref=4 / deblock=1:-3:-3 / analyse=0x3:0x113 / me=umh / subme=11 / psy=1 / psy_rd=1.00:0.00 / mixed_ref=1 / me_range=32 / chroma_me=1 / trellis=2 / 8x8dct=1 / cqm=0 / deadzone=21,11 / fast_pskip=1 / chroma_qp_offset=-2 / threads=6 / lookahead_threads=1 / sliced_threads=0 / nr=0 / decimate=1 / interlaced=0 / bluray_compat=0 / constrained_intra=0 / bframes=5 / b_pyramid=2 / b_adapt=2 / b_bias=0 / direct=2 / weightb=0 / open_gop=0 / weightp=2 / keyint=240 / keyint_min=23 / scenecut=40 / intra_refresh=0 / rc_lookahead=40 / rc=2pass / mbtree=1 / bitrate=11500 / ratetol=1.0 / qcomp=0.60 / qpmin=0 / qpmax=69 / qpstep=4 / cplxblur=20.0 / qblur=0.5 / vbv_maxrate=62500 / vbv_bufsize=78125 / nal_hrd=none / ip_ratio=1.40 / aq=1:1.00 / zones=133224,136819,q=40
      Language : English
      Default : Yes
      Forced : No

      Audio #1
      ID : 2
      Format : AC-3
      Format/Info : Audio Coding 3
      Mode extension : CM (complete main)
      Format settings, Endianness : Big
      Codec ID : A_AC3
      Duration : 1h 35mn
      Bit rate mode : Constant
      Bit rate : 192 Kbps
      Channel(s) : 2 channels
      Channel positions : Front: L R
      Sampling rate : 48.0 KHz
      Bit depth : 16 bits
      Compression mode : Lossy
      Stream size : 131 MiB (2%)
      Language : Russian
      Default : Yes
      Forced : No

      Audio #2
      ID : 3
      Format : AC-3
      Format/Info : Audio Coding 3
      Mode extension : CM (complete main)
      Format settings, Endianness : Big
      Codec ID : A_AC3
      Duration : 1h 35mn
      Bit rate mode : Constant
      Bit rate : 448 Kbps
      Channel(s) : 6 channels
      Channel positions : Front: L C R, Side: L R, LFE
      Sampling rate : 48.0 KHz
      Bit depth : 16 bits
      Compression mode : Lossy
      Stream size : 305 MiB (4%)
      Language : English
      Default : No
      Forced : No

      Text
      ID : 4
      Format : UTF-8
      Codec ID : S_TEXT/UTF8
      Codec ID/Info : UTF-8 Plain Text
      Language : Russian
      Default : Yes
      Forced : No

      Menu
      00:00:00.000 : :Chapter 01
      00:05:00.000 : :Chapter 02
      00:10:00.000 : :Chapter 03
      00:15:00.000 : :Chapter 04
      00:20:00.000 : :Chapter 05
      00:25:00.000 : :Chapter 06
      00:30:00.000 : :Chapter 07
      00:35:00.000 : :Chapter 08
      00:40:00.000 : :Chapter 09
      00:45:00.000 : :Chapter 10
      00:50:00.000 : :Chapter 11
      00:55:00.000 : :Chapter 12
      01:00:00.000 : :Chapter 13
      01:05:00.000 : :Chapter 14
      01:10:00.000 : :Chapter 15
      01:15:00.000 : :Chapter 16
      01:20:00.000 : :Chapter 17
      01:25:00.000 : :Chapter 18
      01:30:00.000 : :Chapter 19
      01:35:00.000 : :Chapter 20
      info [Профиль]  [ЛС] 

      alex5075

      Пол: Пол:Муж

      Стаж: 7 лет 8 месяцев

      Сообщений: 233

      Россия
      Рейтинг

      post 03-Фев-2014 18:23 (спустя 6 минут) [-]2[+]

      [Цитировать] 

      Для себя - русскую дорогу удалил, оставил только сабы. В раздаче оставил. Может кому надо..
      info [Профиль]  [ЛС] 

      zchitmuter

      Пол: Пол:Муж

      Стаж: 6 лет 2 месяца

      Сообщений: 831

      Россия
      Рейтинг

      post 04-Фев-2014 01:27 (спустя 7 часов) [-]0[+]

      [Цитировать] 

      alex5075
      так это бд или все таки хдтв?

      _________________
      info [Профиль]  [ЛС] 

      ciberbox

      Стаж: 4 года 1 месяц

      Сообщений: 134

      Россия
      Рейтинг

      post 04-Фев-2014 03:21 (спустя 1 час 54 минуты) [-]0[+]

      [Цитировать] 

      Мегаспасибище!!!!
      info [Профиль]  [ЛС] 

      alex5075

      Пол: Пол:Муж

      Стаж: 7 лет 8 месяцев

      Сообщений: 233

      Россия
      Рейтинг

      post 04-Фев-2014 12:43 (спустя 9 часов) [-]0[+]

      [Цитировать] 

      zchitmuter писал(а):

      alex5075
      так это бд или все таки хдтв?
      Прошу прощения, это HDTVRip.
      info [Профиль]  [ЛС] 

      Shaurman2001

      Пол: Пол:Муж

      Стаж: 7 лет 2 месяца

      Сообщений: 18

      Россия
      Рейтинг

      post 12-Июл-2015 15:54 (спустя 1 год 5 месяцев) [-]0[+]

      [Цитировать] 

      Скорости можно? 80кб/c - это ужас... оставил на ночь - 30% только ... Ну как так можно?

      _________________
      info [Профиль]  [ЛС] 
      Показать сообщения:    
      Ответить на тему

      Текущее время: 09-Дек 02:12

      Часовой пояс: GMT + 4



      Вы не можете начинать темы
      Вы не можете отвечать на сообщения
      Вы не можете редактировать свои сообщения
      Вы не можете удалять свои сообщения
      Вы не можете голосовать в опросах
      Вы не можете прикреплять файлы к сообщениям
      Вы не можете скачивать файлы