Ошибка

Дверь / Die Tur (Анно Саул) [2009, триллер, драма, детектив, HDRip]

Ответить на тему
 
Автор Сообщение

Linuxoid

Пол: Пол:Муж

Стаж: 7 лет

Сообщений: 343

Украина
Рейтинг

post 03-Фев-2014 00:19 0[+]

[Цитировать] 

Дверь / Die Tur


Год выпуска: 2009
Страна: Германия
Жанр: триллер, драма, детектив
Продолжительность: 01:43:36
Перевод: Любительский (одноголосый закадровый)

Режиссер: Анно Саул
Сценарий: Ян Бергер, Акиф Пиринкчи
Продюсер: Штефан Шуберт, Ральф Швингель, Бьорн Фосгерау, ...
Оператор: Белла Хальбен
Композитор : Фабиан Ромер
Художник: Бёррис Хан-Хофман, Катрин Ашендорф
Монтаж: Андреас Радтке

В ролях: Мадс Миккельсен / Mads Mikkelsen (David Andernach), Джессика Шварц / Jessica Schwarz (Maja Andernach), Валерия Эйсенбарт / Valeria Eisenbart (Leonie Andernach), Томас Тиме / Thomas Thieme (Siggi Butschma), Тим Сейфи / Tim Seyfi (Max Oelze), Штефан Гебельхофф / Stefan Gebelhoff (Paul Wiegand)


Описание: Успешный живописец Дэвид переживает не лучшие времена. Он винит себя в гибели семилетней дочери, погибшей в результате неверно принятого им решения. Но однажды все меняется, когда герой обнаруживает таинственную дверь, которая дает ему возможность вернуться к прошлым ошибкам и все исправить, снова и снова… Однако то, что показалось счастьем все изменить, оборачивается форменным ужасом, ведущим к необратимым последствиям…

Зрители: Германия 49.6 тыс.
Премьера (мир): 26 сентября 2009, ...

Качество: HDRip
Формат: MPEG-4
Видео кодек: AVC
Аудио кодек: AAC LC
Видео: 480x200 (2.40:1), 24.000 fps, AVC, 640 Kbps
Аудио: Аудио #1: AAC LC, 129 Kbps, 48.0 KHz, 2 ch

Код:

General
Complete name                    : The.Door.2009.HDRip.mp4
Format                           : MPEG-4
Format profile                   : Base Media
Codec ID                         : isom
File size                        : 573 MiB
Duration                         : 1h 43mn
Overall bit rate                 : 773 Kbps
Encoded date                     : UTC 2014-02-01 20:03:34
Tagged date                      : UTC 2014-02-01 20:03:34

Video
ID                               : 1
Format                           : AVC
Format/Info                      : Advanced Video Codec
Format profile                   : Main@L3.0
Format settings, CABAC           : Yes
Format settings, ReFrames        : 2 frames
Codec ID                         : avc1
Codec ID/Info                    : Advanced Video Coding
Duration                         : 1h 43mn
Bit rate mode                    : Variable
Bit rate                         : 640 Kbps
Maximum bit rate                 : 2 655 Kbps
Width                            : 480 pixels
Height                           : 200 pixels
Display aspect ratio             : 2.40:1
Frame rate mode                  : Constant
Frame rate                       : 24.000 fps
Color space                      : YUV
Chroma subsampling               : 4:2:0
Bit depth                        : 8 bits
Scan type                        : Progressive
Bits/(Pixel*Frame)               : 0.278
Stream size                      : 474 MiB (83%)
Writing library                  : x264 core 65 r999kMod cc51047
Encoding settings                : cabac=1 / ref=2 / deblock=1:0:0 / analyse=0x1:0x131 / me=umh / subme=6 / psy_rd=1.0:0.0 / mixed_ref=1 / me_range=16 / chroma_me=1 / trellis=1 / 8x8dct=0 / cqm=0 / deadzone=21,11 / chroma_qp_offset=-2 / threads=4 / thread_queue=4 / nr=0 / decimate=1 / mbaff=0 / bframes=3 / b_pyramid=0 / b_adapt=1 / b_bias=0 / direct=3 / wpredb=1 / keyint=250 / keyint_min=25 / scenecut=40(pre) / rc=2pass / bitrate=640 / ratetol=1.0 / qcomp=0.60 / qpmin=10 / qpmax=51 / qpstep=4 / cplxblur=20.0 / qblur=0.5 / ip_ratio=1.40 / pb_ratio=1.30 / aq=1:1.00
Encoded date                     : UTC 2014-02-01 20:03:34
Tagged date                      : UTC 2014-02-01 20:03:50

Audio
ID                               : 2
Format                           : AAC
Format/Info                      : Advanced Audio Codec
Format version                   : Version 4
Format profile                   : LC
Format settings, SBR             : No
Codec ID                         : 40
Duration                         : 1h 43mn
Bit rate mode                    : Variable
Bit rate                         : 129 Kbps
Maximum bit rate                 : 200 Kbps
Channel(s)                       : 2 channels
Channel positions                : Front: L R
Sampling rate                    : 48.0 KHz
Stream size                      : 95.9 MiB (17%)
Encoded date                     : UTC 2014-02-01 20:03:48
Tagged date                      : UTC 2014-02-01 20:03:50
info [Профиль]  [ЛС] 

powder go away

Пол: Пол:Муж

Стаж: 2 года 7 месяцев

Сообщений: 158

Россия
Рейтинг

post 12-Дек-2015 12:07 (спустя 1 год 10 месяцев) [-]1[+]

[Цитировать] 

Еще бы ссылочку на КП ...

_________________
info [Профиль]  [ЛС] 
Показать сообщения:    
Ответить на тему

Текущее время: 15-Дек 08:34

Часовой пояс: GMT + 4



Вы не можете начинать темы
Вы не можете отвечать на сообщения
Вы не можете редактировать свои сообщения
Вы не можете удалять свои сообщения
Вы не можете голосовать в опросах
Вы не можете прикреплять файлы к сообщениям
Вы не можете скачивать файлы