Ошибка

До окончания фрилича осталось:


Советник / The Counselor [Theatrical Cut] (Ридли Скотт) [2013, триллер, драма, криминал, HDRip]

Ответить на тему
 
Автор Сообщение

Linuxoid

Пол: Пол:Муж

Стаж: 6 лет

Сообщений: 284

Украина
Рейтинг

post 02-Фев-2014 04:07 0[+]

[Цитировать] 

Советник / The Counselor
«Соблазн велик»
Год выпуска: 2013
Страна: США , Великобритания
Жанр: триллер, драма, криминал
Продолжительность: 01:57:14

Режиссер: Ридли Скотт
Сценарий: Кормак МакКарти
Продюсер: Майкл Костиган, Марк Хаффам, Кормак МакКарти, ...
Оператор: Дариуш Вольски
Композитор : Дэниэл Пембертон
Художник: Артур Макс, Алекс Камерон, Алехандро Фернандез, ...
Монтаж: Пьетро Скалия

В ролях: Майкл Фассбендер / Michael Fassbender (Counselor), Пенелопа Крус / Penelope Cruz (Laura), Кэмерон Диаз / Cameron Diaz (Malkina), Хавьер Бардем / Javier Bardem (Reiner), Брэд Питт / Brad Pitt (Westray), Бруно Ганц / Bruno Ganz (Diamond Dealer)


Описание: Успешный адвокат, стоящий практически на вершине успеха и на пороге собственной свадьбы, из любопытства и, конечно, ради денег соглашается на предложение своего давнего знакомого, имеющего тесные связи с преступным миром, перевезти из Мексики в США партию кокаина стоимостью 20 млн. долл.

Бюджет: $25 000 000
Сборы в США: $16 973 715
Сборы в мире: + $51 432 000 = $68 405 715 сборы
Сборы в России: $5 461 734
Зрители: Россия 699.6 тыс. , Франция 572.8 тыс. , Мексика 403.2 тыс.
Премьера (мир): 25 октября 2013, ...
Премьера (РФ): 31 октября 2013, «Двадцатый Век Фокс СНГ»
Релиз на DVD: 27 марта 2014, «Двадцатый Век Фокс СНГ», ...
Релиз на Blu-Ray: 27 марта 2014, «Двадцатый Век Фокс СНГ», ...
Рейтинг MPAA: Лицам до 17 лет обязательно присутствие взрослого

Качество: HDRip
Формат: MPEG-4
Видео кодек: AVC
Аудио кодек: AAC LC
Видео: 480x200 (2.40:1), 23.976 fps, AVC, 640 Kbps
Аудио: Аудио #1: AAC LC, 129 Kbps, 48.0 KHz, 2 ch
· В эпизоде в новом ночном клубе, купленном Райнером (Хавьер Бардем) и Советником (Майкл Фассбендер), фокус камеры перемещается от Советника к большому плакату с изображением Стива МакКуина в форме моряка. Это кадр из фильма «Песчаная галька» (1966).

· Фильм посвящен памяти брата Ридли Скотта — Тони Скотту.

· Брэдли Купер и Джереми Реннер рассматривались на роль, которая в итоге досталась Хавьеру Бардему.

· 20 августа 2012 года в связи с трагической гибелью своего брата Тони Скотта, Ридли Скотт остановил съемки и улетел со съемочной площадки к его семье. 4 сентября съемки были продолжены.

· Натали Портман пробовалась на одну из ролей.

· Анджелина Джоли должна была играть в фильме, но выбыла из проекта и впоследствии была заменена Кэмерон Диаз.

· У Хавьера Бардема и Пенелопы Крус, которые в реальной жизни являются супругами, нет общих сцен в фильме.

Код:

General
Complete name                    : The.Counselor.Theatrical.Cut.2013.HDRip.mp4
Format                           : MPEG-4
Format profile                   : Base Media
Codec ID                         : isom
File size                        : 647 MiB
Duration                         : 1h 57mn
Overall bit rate                 : 772 Kbps
Encoded date                     : UTC 2014-01-31 23:58:08
Tagged date                      : UTC 2014-01-31 23:58:08

Video
ID                               : 1
Format                           : AVC
Format/Info                      : Advanced Video Codec
Format profile                   : Main@L3.0
Format settings, CABAC           : Yes
Format settings, ReFrames        : 2 frames
Codec ID                         : avc1
Codec ID/Info                    : Advanced Video Coding
Duration                         : 1h 57mn
Bit rate mode                    : Variable
Bit rate                         : 640 Kbps
Maximum bit rate                 : 2 211 Kbps
Width                            : 480 pixels
Height                           : 200 pixels
Display aspect ratio             : 2.40:1
Frame rate mode                  : Constant
Frame rate                       : 23.976 fps
Color space                      : YUV
Chroma subsampling               : 4:2:0
Bit depth                        : 8 bits
Scan type                        : Progressive
Bits/(Pixel*Frame)               : 0.278
Stream size                      : 537 MiB (83%)
Writing library                  : x264 core 65 r999kMod cc51047
Encoding settings                : cabac=1 / ref=2 / deblock=1:0:0 / analyse=0x1:0x131 / me=umh / subme=6 / psy_rd=1.0:0.0 / mixed_ref=1 / me_range=16 / chroma_me=1 / trellis=1 / 8x8dct=0 / cqm=0 / deadzone=21,11 / chroma_qp_offset=-2 / threads=4 / thread_queue=4 / nr=0 / decimate=1 / mbaff=0 / bframes=3 / b_pyramid=0 / b_adapt=1 / b_bias=0 / direct=3 / wpredb=1 / keyint=250 / keyint_min=25 / scenecut=40(pre) / rc=2pass / bitrate=640 / ratetol=1.0 / qcomp=0.60 / qpmin=10 / qpmax=51 / qpstep=4 / cplxblur=20.0 / qblur=0.5 / ip_ratio=1.40 / pb_ratio=1.30 / aq=1:1.00
Encoded date                     : UTC 2014-01-31 23:58:08
Tagged date                      : UTC 2014-01-31 23:58:54

Audio
ID                               : 2
Format                           : AAC
Format/Info                      : Advanced Audio Codec
Format version                   : Version 4
Format profile                   : LC
Format settings, SBR             : No
Codec ID                         : 40
Duration                         : 1h 57mn
Bit rate mode                    : Variable
Bit rate                         : 129 Kbps
Maximum bit rate                 : 181 Kbps
Channel(s)                       : 2 channels
Channel positions                : Front: L R
Sampling rate                    : 48.0 KHz
Stream size                      : 108 MiB (17%)
Encoded date                     : UTC 2014-01-31 23:58:50
Tagged date                      : UTC 2014-01-31 23:58:54
info [Профиль]  [ЛС] 
Показать сообщения:    
Ответить на тему

Текущее время: 10-Дек 14:56

Часовой пояс: GMT + 4



Вы не можете начинать темы
Вы не можете отвечать на сообщения
Вы не можете редактировать свои сообщения
Вы не можете удалять свои сообщения
Вы не можете голосовать в опросах
Вы не можете прикреплять файлы к сообщениям
Вы не можете скачивать файлы