Ошибка

Лига Справедливости: Война / Justice League: War (Джей Олива) [2014, мультфильм, фантастика, фэнтези, боевик, WEB-DLRip]

Ответить на тему
 
Автор Сообщение

CooL

Пол: Пол:Муж

Стаж: 6 лет 9 месяцев

Сообщений: 1235

СССР
Рейтинг

post 27-Янв-2014 16:47 1[+]

[Цитировать] 

Лига Справедливости: Война
Justice League: War

Название: Лига Справедливости: Война

Год выпуска: 2014
Жанр: комикс, мультфильм, фантастика, фэнтези, боевик, приключения
Продолжительность: 01:19:24
Страна: США
Перевод: Любительский (Одноголосый закадровый) [Hronos]

Субтитры: Английские
Режиссер: Джей Олива
Описание: Мультфильм повествует о начале возникновения Лиги справедливости. В Готэм-сити загадочным образом исчезают люди, в этом винят Бэтмена. Люди считают, что он похищает людей и пьет их кровь. Зеленый Фонарь, дабы покарать виновника похищения, направляется в Готем и встречает там Бэтмена, но под личиной летучей мыши оказывается инопланетный высокотехнологичный робот. Фонарь и настоящий Бэтмен объединяются для борьбы с роботом, который заложил какой-то предмет в канализации города. Как выясняется позже эти штуки есть ничто иное как кротовые норы (порталы для перемещения между измерениями) для вторжения


Автор рипа: | CooL
Автор постера: CooL
Сэмпл
Качество: WEB-DLRip
Формат: AVI
Видео кодек: XviD
Аудио кодек: AC3
Видео: 720x400 (1.80:1), 23.976 fps, XviD build 65 ~1866 kbps avg, 0.27 bit/pixel
Аудио 1 : 48 kHz, AC3 Dolby Digital, 2/0 (L,R) ch, ~192 kbps - [Hronos]
Аудио 2 : 48 kHz, AC3 Dolby Digital, 3/2 (L,C,R,l,r) + LFE ch, ~384 kbps - [ENG]

Формат/Информация : Audio Video Interleave
Размер файла : 1,36 Гбайт
Продолжительность : 1 ч. 19 м.
Общий поток : 2457 Кбит/сек
Программа кодирования : VirtualDubMod 1.5.10.2 (build 2540/release)
Библиотека кодирования : VirtualDubMod build 2540/release

Видео
Идентификатор : 0
Формат : MPEG-4 Visual
Профиль формата : Advanced Simple@L5
Параметр BVOP формата : 1
Параметр QPel формата : Нет
Параметр GMC формата : Без точки перехода
Параметр матрицы формата : Выборочная
Идентификатор кодека : DX50
Идентификатор кодека/Подсказка : DivX 5
Продолжительность : 1 ч. 19 м.
Битрейт : 1867 Кбит/сек
Ширина : 720 пикселей
Высота : 400 пикселей
Соотношение сторон : 16:9
Частота кадров : 23,976 кадра/сек
Цветовое пространство : YUV
Субдискретизация насыщенности : 4:2:0
Битовая глубина : 8 бит
Тип развёртки : Прогрессивная
Метод сжатия : С потерями
Бит/(Пиксели*Кадры) : 0.270
Размер потока : 1,04 Гбайт (76%)
Библиотека кодирования : XviD 65

Аудио #1
Идентификатор : 1
Формат : AC-3
Формат/Информация : Audio Coding 3
Расширение режима : CM (complete main)
Параметр Endianness формата : Big
Идентификатор кодека : 2000
Продолжительность : 1 ч. 19 м.
Вид битрейта : Постоянный
Битрейт : 192 Кбит/сек
Каналы : 2 канала
Расположение каналов : Front: L R
Частота : 48,0 КГц
Битовая глубина : 16 бит
Метод сжатия : С потерями
Размер потока : 109 Мбайт (8%)
Выравнивание : Разделение по промежуткам
Продолжительность промежутка : 42 мс. (1,00 видеокадр)
Время предзагрузки промежутка : 500 мс.

Аудио #2
Идентификатор : 2
Формат : AC-3
Формат/Информация : Audio Coding 3
Расширение режима : CM (complete main)
Параметр Endianness формата : Big
Идентификатор кодека : 2000
Продолжительность : 1 ч. 19 м.
Вид битрейта : Постоянный
Битрейт : 384 Кбит/сек
Каналы : 6 каналов
Расположение каналов : Front: L C R, Side: L R, LFE
Частота : 48,0 КГц
Битовая глубина : 16 бит
Метод сжатия : С потерями
Размер потока : 218 Мбайт (16%)
Выравнивание : Разделение по промежуткам
Продолжительность промежутка : 42 мс. (1,00 видеокадр)
Время предзагрузки промежутка : 500 мс.
info [Профиль]  [ЛС] 

zormen

Пол: Пол:Муж

Стаж: 6 лет 11 месяцев

Сообщений: 147

Россия
Рейтинг

post 27-Янв-2014 21:23 (спустя 4 часа) [-]0[+]

[Цитировать] 

Спасибо !)

_________________
info [Профиль]  [ЛС] 

Чуваш

Пол: Пол:Муж

Стаж: 4 года 11 месяцев

Сообщений: 1

Россия
Рейтинг

post 27-Янв-2014 22:41 (спустя 1 час 17 минут) [-]0[+]

[Цитировать] 

А когда будет получше качество?
info [Профиль]  [ЛС] 

Bu3upb

Пол: Пол:Муж

Стаж: 6 лет 8 месяцев

Сообщений: 19

Россия
Рейтинг

post 27-Янв-2014 22:43 (спустя 1 минута) [-]0[+]

[Цитировать] 

Будут ли субтитры с оригинальной дорожкой?
info [Профиль]  [ЛС] 

CooL

Пол: Пол:Муж

Стаж: 6 лет 9 месяцев

Сообщений: 1235

СССР
Рейтинг

post 27-Янв-2014 23:02 (спустя 19 минут) [-]3[+]

[Цитировать] 

Чуваш писал(а):

А когда будет получше качество?
завтра

Bu3upb писал(а):

Будут ли субтитры с оригинальной дорожкой?
оригинальная дорожка в релизе есть. Субтитры переводяться на нотабеноиде. призываю всех поспособствовать переводу Подмигиваю
info [Профиль]  [ЛС] 

Shredinger

Пол: Пол:Муж

Стаж: 6 лет 9 месяцев

Сообщений: 2172

Предупреждений: 2

Россия
Рейтинг

post 28-Янв-2014 03:49 (спустя 4 часа) [-]-1[+]

[Цитировать] 

То у них эврибади дайз в предыдущем мувике, то слюнявая пропаганда по борьбе с абсолютным злом. *sigh* После второй части Тёмного Рыцаря такие вещи разочаровывают.

_________________
Единение через разнообразие.
info [Профиль]  [ЛС] 

ZerotakerZX

Стаж: 5 лет 5 месяцев

Сообщений: 718

Рейтинг

post 28-Янв-2014 07:44 (спустя 3 часа) [-]0[+]

[Цитировать] 

Shredinger писал(а):

То у них эврибади дайз в предыдущем мувике, то слюнявая пропаганда по борьбе с абсолютным злом. *sigh* После второй части Тёмного Рыцаря такие вещи разочаровывают.
Ну ты реально поборись немного со злом — неужели жалко иногда?
info [Профиль]  [ЛС] 

Shredinger

Пол: Пол:Муж

Стаж: 6 лет 9 месяцев

Сообщений: 2172

Предупреждений: 2

Россия
Рейтинг

post 28-Янв-2014 14:00 (спустя 6 часов) [-]0[+]

[Цитировать] 

ZerotakerZX, ты будто бы сказать что-то хотел, но я не понял что.
Слова вроде понятны, а мысли нет. Вроде бы тут должен быть сарказм, но в то же время какая-то бессмыслица.
Зло не жалко, ибо его не существует. Есть люди/системы/организации и их схемы поведения, которые тебе не нравятся\бесят. Их жаль только на определённой черте. Побороться же с ними ещё успеется, не боись.
В данном же мульте всё так складно, что тошнит. Но зрелищно.
Только момент с демонстрацией против «посла амазонок» порадовал, но это прям пасхалка.

_________________
Единение через разнообразие.
info [Профиль]  [ЛС] 

ZerotakerZX

Стаж: 5 лет 5 месяцев

Сообщений: 718

Рейтинг

post 28-Янв-2014 14:41 (спустя 41 минута) [-]-1[+]

[Цитировать] 

Shredinger писал(а):

ZerotakerZX, ты будто бы сказать что-то хотел, но я не понял что.
Слова вроде понятны, а мысли нет. Вроде бы тут должен быть сарказм, но в то же время какая-то бессмыслица.
Зло не жалко, ибо его не существует. Есть люди/системы/организации и их схемы поведения, которые тебе не нравятся\бесят. Их жаль только на определённой черте. Побороться же с ними ещё успеется, не боись.
В данном же мульте всё так складно, что тошнит. Но зрелищно.
Только момент с демонстрацией против «посла амазонок» порадовал, но это прям пасхалка.
Тож что джокер и укуреный лемур. А вообще пост не читал, ибо см джокера. kolob_113
info [Профиль]  [ЛС] 

Shredinger

Пол: Пол:Муж

Стаж: 6 лет 9 месяцев

Сообщений: 2172

Предупреждений: 2

Россия
Рейтинг

post 28-Янв-2014 15:55 (спустя 1 час 13 минут) [-]0[+]

[Цитировать] 

ZerotakerZX, про что несёшь? Про джокера, про лемура какого-то.. Наркоман.

_________________
Единение через разнообразие.
info [Профиль]  [ЛС] 

KENE

Пол: Пол:Муж

Стаж: 6 лет 7 месяцев

Сообщений: 33

Рейтинг

post 28-Янв-2014 22:14 (спустя 6 часов) [-]0[+]

[Цитировать] 

блин только вчера прочитал эту арку комикса ( , ну как так , а тут это
info [Профиль]  [ЛС] 

mrwadewilson

Стаж: 6 лет 2 месяца

Сообщений: 147

Рейтинг

post 29-Янв-2014 19:02 (спустя 20 часов) [-]0[+]

[Цитировать] 

чето у меня русской озвучки нету((
а все открыл другим проигрывателем появилась))
info [Профиль]  [ЛС] 

Psychoman88

Пол: Пол:Муж

Стаж: 3 года 8 месяцев

Сообщений: 130

Рейтинг

post 29-Янв-2014 20:54 (спустя 1 час 51 минута) [-]0[+]

[Цитировать] 

кач-во получше не подбежало !?
info [Профиль]  [ЛС] 

CooL

Пол: Пол:Муж

Стаж: 6 лет 9 месяцев

Сообщений: 1235

СССР
Рейтинг

post 29-Янв-2014 21:21 (спустя 27 минут) [-]0[+]

[Цитировать] 

будет как только выйдут рус сабы
info [Профиль]  [ЛС] 

Shredinger

Пол: Пол:Муж

Стаж: 6 лет 9 месяцев

Сообщений: 2172

Предупреждений: 2

Россия
Рейтинг

post 29-Янв-2014 22:57 (спустя 1 час 36 минут) [-]0[+]

[Цитировать] 

Да есть давно качество 720р. Ещё в день этого релиза было. Ищите и обрящите.

_________________
Единение через разнообразие.
info [Профиль]  [ЛС] 
Показать сообщения:    
Ответить на тему

Текущее время: 08-Дек 12:02

Часовой пояс: GMT + 4



Вы не можете начинать темы
Вы не можете отвечать на сообщения
Вы не можете редактировать свои сообщения
Вы не можете удалять свои сообщения
Вы не можете голосовать в опросах
Вы не можете прикреплять файлы к сообщениям
Вы не можете скачивать файлы