Ошибка

До окончания фрилича осталось:


Ра-Зефон | RahXephon [TV][01-26+1 из 26+1][2002][фантастика, драма, романтика, меха][BDRip][720p][Любительский(JAP+SUB)]

Ответить на тему
 
Автор Сообщение

precentor frost

Пол: Пол:Муж

Стаж: 7 лет 8 месяцев

Сообщений: 669

Рейтинг

post 27-Янв-2014 11:41 1[+]

[Цитировать] 



Ра-Зефон || RahXephon || ラーゼフォン


Страна:
Год выпуска: 2002 [21.01.2002 ~ 10.09.2002]
Жанр: фантастика, драма, романтика, меха
Продолжительность: TV 26 эп. по 24 мин.

Перевод: озвучка || субтитры

Режиссёр: Идзубути Ютака
Автор оригинала: Идзубути Ютака
Студия:

Страшная катастрофа уничтожила мир, и только город-крепость Токио, защищенный мощным силовым полем, остался последним осколком человечества. Так считает 17-летний Аято Камино, токийский школьник, ведущий, как он считает, нормальную жизнь. Жизнь эта кончается вместе с прорывом силового поля и налетом странных истребителей, которым противостоят еще более странные боевые машины. В наступившей суматохе Аято сталкивается с молодой женщиной Харукой Сито, к которой сразу чувствует странное притяжение…
Вот так судьба в образе Харуки приводит Аято к богоподобному существу по имени Ра-Зефон, таинственному гиганту, которого можно назвать роботом, а можно – инструментом настройки Вселенной. С его помощью Камино, как цыпленок, вылупляется из скорлупы незнания и начинает искать свое истинное место в мире. Главные темы этого великолепного аниме, густо замешанного на традициях жанра меха, древней истории, философии и мистике – Время, любовь и музыка!


© Hollow, World Art


Информационные ссылки: AniDB || World Art || MAL

Качество: BDRip
Энкод: E-Haro
Тип видео: без хардсаба
Формат: mkv

Видео: x264 (Hi10p), 960x720 (4:3), ~2200 Kbps, 23.976 fps
Аудио JAP: Vorbis, 48kHz, ~320 Kbps, 2ch

Аудио RUS: AC3, 48kHz, ~224 Kbps, 2ch || Animegroup (ext)
одноголосая (муж.) от Дмитрий Толмачев

Субтитры RUS: ASS, полные || Angel & LEXX$Y$ (ext)


01. Over Lord
02. Awakening
03. Welcome to Our Town
04. Watch the Year Hand
05. On Earth as it is in Heaven
06. Lost Songs Forgotten Melodies
07. Phantom in the Cloud
08. The Dreaming Stone
09. Sanctuary
10. War in the Rememberance
11. NightMare
12. Resonance
13. Sleeping Beauty
14. Time After Time
15. Child Hoods End
16. The Moon Princess
17. Ground Zero
18. The Memory of a Lost City
19. Ticket to Nowhere
20. Interested Parties
21. Good Bye My Friend
22. Down Fall
23. Where the Sweet Bird Song
24. Twin Music
25. Deus Ex Machina
26. Time Enough for Love

Special Compilation. Memory

Код:

Complete name                            : ..\[E-HARO Raws] RahXephon — 01 (BD 960x720 h264 10bit Vorbis).mkv
Format                                   : Matroska
Format version                           : Version 4 / Version 2
File size                                : 419 MiB
Duration                                 : 23mn 30s
Overall bit rate mode                    : Variable
Overall bit rate                         : 2 494 Kbps
Encoded date                             : UTC 2013-07-11 17:38:50
Writing application                      : mkvmerge v6.3.0 ('You can't stop me!') built on Jun 28 2013 20:09:41
Writing library                          : libebml v1.3.0 + libmatroska v1.4.0

Video
ID                                       : 1
Format                                   : AVC
Format/Info                              : Advanced Video Codec
Format profile                           : High 10@L5.0
Format settings, CABAC                   : Yes
Format settings, ReFrames                : 9 frames
Codec ID                                 : V_MPEG4/ISO/AVC
Duration                                 : 23mn 30s
Bit rate                                 : 2 124 Kbps
Width                                    : 960 pixels
Height                                   : 720 pixels
Display aspect ratio                     : 4:3
Frame rate mode                          : Constant
Frame rate                               : 23.976 fps
Color space                              : YUV
Chroma subsampling                       : 4:2:0
Bit depth                                : 10 bits
Scan type                                : Progressive
Bits/(Pixel*Frame)                       : 0.128
Stream size                              : 357 MiB (85%)
Title                                    : RAHXEPHON ep.01 «Over Lord»
Writing library                          : x264 core 133 r2334 a3ac64b
Encoding settings                        : cabac=1 / ref=9 / deblock=1:-1:-1 / analyse=0x3:0x113 / me=umh / subme=9 / psy=1 / psy_rd=1.00:0.00 / mixed_ref=1 / me_range=24 / chroma_me=1 / trellis=2 / 8x8dct=1 / cqm=0 / deadzone=21,11 / fast_pskip=0 / chroma_qp_offset=-2 / threads=9 / lookahead_threads=2 / sliced_threads=0 / nr=0 / decimate=0 / interlaced=0 / bluray_compat=0 / constrained_intra=0 / bframes=12 / b_pyramid=2 / b_adapt=2 / b_bias=0 / direct=1 / weightb=1 / open_gop=0 / weightp=2 / keyint=240 / keyint_min=24 / scenecut=40 / intra_refresh=0 / rc=crf / mbtree=0 / crf=16.0 / qcomp=0.72 / qpmin=0 / qpmax=81 / qpstep=4 / ip_ratio=1.40 / pb_ratio=1.30 / aq=1:0.95
Default                                  : Yes
Forced                                   : No
Color primaries                          : BT.709
Transfer characteristics                 : BT.709
Matrix coefficients                      : BT.709

Audio
ID                                       : 2
Format                                   : Vorbis
Format settings, Floor                   : 1
Codec ID                                 : A_VORBIS
Duration                                 : 23mn 30s
Bit rate mode                            : Variable
Bit rate                                 : 320 Kbps
Channel count                            : 2 channels
Sampling rate                            : 48.0 KHz
Compression mode                         : Lossy
Stream size                              : 53.8 MiB (13%)
Writing library                          : libVorbis (Schaufenugget) (20101101 (Schaufenugget))
Language                                 : Japanese
Default                                  : Yes
Forced                                   : No
info [Профиль]  [ЛС] 

pam0009

Пол: Пол:Муж

Стаж: 4 года 1 месяц

Сообщений: 146

Россия
Рейтинг

post 27-Янв-2014 14:27 (спустя 2 часа 46 минут) [-]2[+]

[Цитировать] 

Шикарная вещь, 10 из 10.
Но Ева все же глубже.)

_________________
info [Профиль]  [ЛС] 

AstraZak

Пол: Пол:Муж

Стаж: 6 лет 11 месяцев

Сообщений: 187

Предупреждений: 1

Россия
Рейтинг

post 27-Янв-2014 15:14 (спустя 46 минут) [-]-17[+]

[Цитировать] 

Ну что можно сказать, редкостное гавно, очень скучно, прям засыпал если честно...Такое надо в мувик 1-н вставлять но уж точно не в 26-ть серий.
info [Профиль]  [ЛС] 

ksained

Пол: Пол:Муж

Стаж: 3 года 9 месяцев

Сообщений: 19

Россия
Рейтинг

post 27-Янв-2014 17:35 (спустя 2 часа 21 минута) [-]0[+]

[Цитировать] 

давно это было! шикарная вещь ) посмотрел залпом ваще Улыбаюсь
info [Профиль]  [ЛС] 

Instylar

Пол: Пол:Муж

Стаж: 6 лет 8 месяцев

Сообщений: 47

Россия
Рейтинг

post 27-Янв-2014 18:25 (спустя 49 минут) [-]1[+]

[Цитировать] 

AstraZak, собственно что то такое есть, слегка повыше рейтингом (секас) и слегка поменьше соплей, вышло имхо действительно лучше сериала.
Да, и как тут не помянуть глубину Евы... Время начала популярности аниме пришлось к сожалению именно на нее. Иначе нашелся бы какой нибудь старпер и помянул глубину первых гандамов, имхо был бы ближе к истине.
info [Профиль]  [ЛС] 

Krontes

Пол: Пол:Муж

Стаж: 6 лет 9 месяцев

Сообщений: 281

Япония
Рейтинг

post 27-Янв-2014 20:14 (спустя 1 час 48 минут) [-]0[+]

[Цитировать] 

Аниме интересное но без кровищи , раньше её цензурели в аниме. В этом аниме всегда был безума от Рейки Мишимы.
info [Профиль]  [ЛС] 

Euph

Пол: Пол:Муж

Стаж: 6 лет 2 месяца

Сообщений: 35

Рейтинг

post 27-Янв-2014 21:47 (спустя 1 час 33 минуты) [-]0[+]

[Цитировать] 

Аниме на любителя, и так случилось, что я - это тот самый любитель. Возраст дает о себе знать: структура повествования несколько иная. Имеются определенные эпизоды, перегруженные смысловым контекстом, особенно ближе к концу. В то же время, я очень рекомендую попробовать, особенно тем, кто любит в аниме ощущение некой предрешенности, неминуемости.

Особо отмечу "тот самый эпизод" (№19), который у меня всегда всплывает, когда кто-то просит объяснить, что отличительного в аниме.

_________________
"Я вам говорил миллион раз - не преувеличивайте!" (с) Мел Хелицер.
info [Профиль]  [ЛС] 

Briorey

Пол: Пол:Муж

Стаж: 6 лет 2 месяца

Сообщений: 26

Украина
Рейтинг

post 28-Янв-2014 13:35 (спустя 15 часов) [-]0[+]

[Цитировать] 

похоже на еву?

_________________
info [Профиль]  [ЛС] 
Показать сообщения:    
Ответить на тему

Текущее время: 10-Дек 20:46

Часовой пояс: GMT + 4



Вы не можете начинать темы
Вы не можете отвечать на сообщения
Вы не можете редактировать свои сообщения
Вы не можете удалять свои сообщения
Вы не можете голосовать в опросах
Вы не можете прикреплять файлы к сообщениям
Вы не можете скачивать файлы