Ошибка

Лига Справедливости: Парадокс источника конфликта / Justice League: The Flashpoint Paradox (Джей Олива) [2013, мультфильм, фантастика, фэнтези, боевик, BDRip 720p]

Ответить на тему
 
Автор Сообщение

CooL

Пол: Пол:Муж

Стаж: 6 лет 9 месяцев

Сообщений: 1235

СССР
Рейтинг

post 26-Янв-2014 17:47 2[+]

[Цитировать] 

pic="http://s001.youpic.su/pictures/1390683600/177c66fcc042b846e363f959fd2e0ee6.png"


Лига Справедливости: Парадокс источника конфликта
Justice League: The Flashpoint Paradox


Название: Лига Справедливости: Парадокс источника конфликта

Год выпуска: 2013
Жанр: комикс, мультфильм, фантастика, фэнтези, боевик, приключения
Продолжительность: 01:21:14
Страна: США
Перевод: Любительский (многоголосый закадровый) [Arasi Project]+
Любительский (многоголосый закадровый) [DuBDrag Project]+
Одноголосый закадровый [Hronos]
Субтитры: русские [Voronine], русские [GeekiLeaks] , английские
Режиссер: Джей Олива
Описание: В центре сюжета приключенческого мультфильма Лига справедливости: Парадокс источника конфликта — история непростого парня Барри Аллена, который позднее станет известен всему миру, как супергерой Флэш, обладающий способностью развивать сверхзвуковую скорость. Спустя долгие годы после убийства матери Барри все еще мучается угрызениями совести, ведь в тот роковой день он должен был прийти домой раньше. Однажды Флэш получает возможность все исправить благодаря путешествие во времени.
Отправившись в прошлое он приходит домой раньше и спасает мать от гибели. Но изменив некие события прошлого Флэш с ужасом узнает, что и будущее кардинально изменилось. Теперь героем Централ-Сити является суперзлодей Капитан Холод, защитник Готэма — Бэтмен стал безжалостным, другие супергерои находятся кто где, их личности так же сильно изменились, а Лиги справедливости не существует. В этом мире суперзлодеи остаются безнаказанными и Флэшу приходится действовать. Но сможет ли он один изменить действительность?


Сэмпл
Качество: BDRip 720p
Формат: MKV
Видео кодек: AVC
Аудио кодек: AC3
Видео: AVC, 1280x720, 23,976 fps, 2 912 Kbps
Аудио 1 : AC3, 48 KHz, 6 channels, 640 Kbps - MVO [Arasi Project]
Аудио 2 : AC3, 48 KHz, 6 channels, 640 Kbps - MVO [DuBDrag Project]
Аудио 3 : AC3, 48 KHz, 2 channels, 224 Kbps - VO [Hronos]
Аудио 4 : AC3, 48 KHz, 6 channels, 640 Kbps - ENG [Оригинал]
Полное имя : Z:\Justice.League.the.Flashpoint.Paradox.2013.BDRip.1080p.2XMVO.VO.ENG.Subs-HDWinG.mkv
Формат : Matroska
Версия формата : Version 2
Размер файла : 2,92 Гбайт
Продолжительность : 1 ч. 21 м.
Общий поток : 5147 Кбит/сек
Дата кодирования : UTC 2013-09-01 12:43:56
Программа кодирования : mkvmerge v5.8.0 ('No Sleep / Pillow') built on Sep 2 2012 15:37:04
Библиотека кодирования : libebml v1.2.3 + libmatroska v1.3.0

Видео
Идентификатор : 1
Формат : AVC
Формат/Информация : Advanced Video Codec
Профиль формата : High@L4.1
Параметр CABAC формата : Да
Параметр ReFrames формата : 9 кадров
Идентификатор кодека : V_MPEG4/ISO/AVC
Продолжительность : 1 ч. 21 м.
Битрейт : 2900 Кбит/сек
Ширина : 1280 пикселей
Высота : 720 пикселей
Соотношение сторон : 16:9
Режим частоты кадров : Постоянный
Частота кадров : 23,976 кадра/сек
Цветовое пространство : YUV
Субдискретизация насыщенности : 4:2:0
Битовая глубина : 8 бит
Тип развёртки : Прогрессивная
Бит/(Пиксели*Кадры) : 0.131
Размер потока : 1,65 Гбайт (56%)
Библиотека кодирования : x264 core 132 r2323+704+51 d571b1c tMod [8-bit@4:2:0 X86_64]
Настройки программы : cabac=1 / ref=9 / deblock=1:-3:-3 / analyse=0x3:0x113 / me=umh / subme=11 / psy=1 / fade_compensate=0.00 / psy_rd=1.02:0.00 / mixed_ref=1 / me_range=32 / chroma_me=1 / trellis=2 / 8x8dct=1 / cqm=0 / deadzone=21,11 / fast_pskip=0 / chroma_qp_offset=-2 / threads=36 / lookahead_threads=5 / sliced_threads=0 / nr=0 / decimate=0 / interlaced=0 / bluray_compat=0 / constrained_intra=0 / fgo=0 / bframes=8 / b_pyramid=2 / b_adapt=2 / b_bias=0 / direct=3 / weightb=1 / open_gop=0 / weightp=2 / keyint=240 / keyint_min=24 / scenecut=40 / intra_refresh=0 / rc=crf / mbtree=0 / crf=16.5000 / qcomp=0.70 / qpmin=0 / qpmax=69 / qpstep=4 / ip_ratio=1.20 / pb_ratio=1.20 / aq=4:0.95 / aq-sensitivity=10.00 / aq-factor=1.00:1.00:1.00 / aq2=0 / aq3=0
Язык : English
Default : Да
Forced : Нет

Аудио #1
Идентификатор : 2
Формат : AC-3
Формат/Информация : Audio Coding 3
Расширение режима : CM (complete main)
Параметр Endianness формата : Big
Идентификатор кодека : A_AC3
Продолжительность : 1 ч. 21 м.
Вид битрейта : Постоянный
Битрейт : 640 Кбит/сек
Каналы : 6 каналов
Расположение каналов : Front: L C R, Side: L R, LFE
Частота : 48,0 КГц
Битовая глубина : 16 бит
Метод сжатия : С потерями
Размер потока : 372 Мбайт (12%)
Заголовок : MVO [Arasi Project]
Язык : Russian
Default : Да
Forced : Нет

Аудио #2
Идентификатор : 3
Формат : AC-3
Формат/Информация : Audio Coding 3
Расширение режима : CM (complete main)
Параметр Endianness формата : Big
Идентификатор кодека : A_AC3
Продолжительность : 1 ч. 21 м.
Вид битрейта : Постоянный
Битрейт : 640 Кбит/сек
Каналы : 6 каналов
Расположение каналов : Front: L C R, Side: L R, LFE
Частота : 48,0 КГц
Битовая глубина : 16 бит
Метод сжатия : С потерями
Размер потока : 372 Мбайт (12%)
Заголовок : MVO [DuBDrag Project]
Язык : Russian
Default : Нет
Forced : Нет

Аудио #3
Идентификатор : 4
Формат : AC-3
Формат/Информация : Audio Coding 3
Расширение режима : CM (complete main)
Параметр Endianness формата : Big
Идентификатор кодека : A_AC3
Продолжительность : 1 ч. 21 м.
Вид битрейта : Постоянный
Битрейт : 224 Кбит/сек
Каналы : 2 канала
Расположение каналов : Front: L R
Частота : 48,0 КГц
Битовая глубина : 16 бит
Метод сжатия : С потерями
Размер потока : 130 Мбайт (4%)
Заголовок : VO [Hronos]
Язык : Russian
Default : Нет
Forced : Нет

Аудио #4
Идентификатор : 5
Формат : AC-3
Формат/Информация : Audio Coding 3
Расширение режима : CM (complete main)
Параметр Endianness формата : Big
Идентификатор кодека : A_AC3
Продолжительность : 1 ч. 21 м.
Вид битрейта : Постоянный
Битрейт : 640 Кбит/сек
Каналы : 6 каналов
Расположение каналов : Front: L C R, Side: L R, LFE
Частота : 48,0 КГц
Битовая глубина : 16 бит
Метод сжатия : С потерями
Размер потока : 372 Мбайт (12%)
Язык : English
Default : Нет
Forced : Нет

Текст #1
Идентификатор : 6
Формат : UTF-8
Идентификатор кодека : S_TEXT/UTF8
Идентификатор кодека/Информация : UTF-8 Plain Text
Заголовок : [Voronine]
Язык : Russian
Default : Нет
Forced : Нет

Текст #2
Идентификатор : 7
Формат : UTF-8
Идентификатор кодека : S_TEXT/UTF8
Идентификатор кодека/Информация : UTF-8 Plain Text
Заголовок : [GeekiLeaks]
Язык : Russian
Default : Нет
Forced : Нет

Текст #3
Идентификатор : 8
Формат : UTF-8
Идентификатор кодека : S_TEXT/UTF8
Идентификатор кодека/Информация : UTF-8 Plain Text
Язык : English
Default : Да
Forced : Нет
info [Профиль]  [ЛС] 

Draginor

Пол: Пол:Муж

Стаж: 6 лет 8 месяцев

Сообщений: 22

Ямайка
Рейтинг

post 27-Янв-2014 01:05 (спустя 7 часов) [-]10[+]

[Цитировать] 

это не Вандервуман - это трансвистит какой то
info [Профиль]  [ЛС] 

ZerotakerZX

Стаж: 5 лет 5 месяцев

Сообщений: 718

Рейтинг

post 27-Янв-2014 07:25 (спустя 6 часов) [-]3[+]

[Цитировать] 

Draginor писал(а):

это не Вандервуман - это трансвистит какой то
Реализм же.
info [Профиль]  [ЛС] 

W9000

Пол: Пол:Муж

Стаж: 7 лет 3 месяца

Сообщений: 2653

Россия
Рейтинг

post 27-Янв-2014 11:41 (спустя 4 часа) [-]1[+]

[Цитировать] 

а мне все интерресно, что за одномуд название переводил... что даже не потрудился вдуматься, что же он такое сварганил...
В оригинале-то оно идет как "Парадокс точки отсчета", как бэ намекая на теорию относительности, в которой события в отношении к некоторой точки отсчета зависят от действий самого наблюдателя - привет Шрёдингеру и его не живому и не мертвому коту. что мы и видим на экране - Флэш дважды изменил мир из своей "точки отсчета"
первый раз - спасши свою мать, второй раз - остановив себя в коридоре времени

_________________
Для него мы все только на миг
Задержались под светом звезды
По имени Солнце.

Существует 2 бесконечности: Вселенная и Глупость. Впрочем, я не уверен насчет Вселенной. ©А.Эйнштейн
info [Профиль]  [ЛС] 

paleno2000

Стаж: 2 года 11 месяцев

Сообщений: 61

Рейтинг

post 27-Янв-2014 15:48 (спустя 4 часа) [-]0[+]

[Цитировать] 

Как мульт? В духе мультсериала ?
info [Профиль]  [ЛС] 

Kirill

Пол: Пол:Муж

Стаж: 6 лет 2 месяца

Сообщений: 197

Россия
Рейтинг

post 27-Янв-2014 17:24 (спустя 1 час 36 минут) [-]0[+]

[Цитировать] 

Аквамен перекачался (мб. депрессия из-за того, что "Аквамен сосет" © Радж)
info [Профиль]  [ЛС] 

Mitsurain

Пол: Пол:Муж

Стаж: 6 лет 2 месяца

Сообщений: 377

Россия
Рейтинг

post 28-Янв-2014 18:53 (спустя 1 день 1 час) [-]0[+]

[Цитировать] 

Как по мне, не дотягивает до Тёмного Рыцаря возрождение легенды, но очень даже хороший мультфильм. Сюжет понравился.
info [Профиль]  [ЛС] 

t0wer

Пол: Пол:Муж

Стаж: 5 лет

Сообщений: 17

Ямайка
Рейтинг

post 29-Апр-2014 00:10 (спустя 3 месяца) [-]0[+]

[Цитировать] 

W9000 писал(а):

а мне все интерресно, что за одномуд название переводил... что даже не потрудился вдуматься, что же он такое сварганил...
В оригинале-то оно идет как "Парадокс точки отсчета", как бэ намекая на теорию относительности, в которой события в отношении к некоторой точки отсчета зависят от действий самого наблюдателя - привет Шрёдингеру и его не живому и не мертвому коту. что мы и видим на экране - Флэш дважды изменил мир из своей "точки отсчета"
первый раз - спасши свою мать, второй раз - остановив себя в коридоре времени
О можно без споЙлеров обходиться?!
info [Профиль]  [ЛС] 

DeusNeko

Пол: Пол:Муж

Стаж: 7 лет 2 месяца

Сообщений: 1381

Предупреждений: 1

Россия
Рейтинг

post 29-Апр-2014 02:58 (спустя 2 часа 47 минут) [-]0[+]

[Цитировать] 

Добротная вещь. Хороший экшн, много событий, много персонажей засветилось.
Но детям лучше не показывать.

_________________
Matrix Mini-I Pro -> Questyle CMA800R -> Sennheiser HD 280/PSB M4U 1/Beyerdynamic DT 770 Pro/Beyerdynamic T90/HiFiMAN HE-400
info [Профиль]  [ЛС] 

Дефектный Модуль

Пол: Пол:Муж

Стаж: 6 лет 5 месяцев

Сообщений: 566

Россия
Рейтинг

post 07-Авг-2014 09:42 (спустя 3 месяца 8 дней) [-]0[+]

[Цитировать] 

Смотрел, понравился, а в 1080p нет ?
info [Профиль]  [ЛС] 

neyronix

Пол: Пол:Муж

Стаж: 6 лет 7 месяцев

Сообщений: 9

Рейтинг

post 07-Май-2015 16:58 (спустя 9 месяцев) [-]0[+]

[Цитировать] 

Встаньте на раздачу, пожалуйста)
info [Профиль]  [ЛС] 
Показать сообщения:    
Ответить на тему

Текущее время: 07-Дек 22:28

Часовой пояс: GMT + 4



Вы не можете начинать темы
Вы не можете отвечать на сообщения
Вы не можете редактировать свои сообщения
Вы не можете удалять свои сообщения
Вы не можете голосовать в опросах
Вы не можете прикреплять файлы к сообщениям
Вы не можете скачивать файлы