Ошибка

Кумба / Khumba (Энтони Силверстон) [2013, мультфильм, приключения, семейный , HDRip]

Ответить на тему
 
Автор Сообщение

koss555

Пол: Пол:Муж

Стаж: 4 года 11 месяцев

Сообщений: 1549

Россия
Рейтинг

post 26-Янв-2014 11:39 1[+]

[Цитировать] 

Кумба / Khumba
«Half a zebra, a whole lot of adventure!»

Год выпуска: 2013
Страна: ЮАР
Жанр: мультфильм, приключения, семейный
Продолжительность: 01:25:18
Перевод: Дублированный

Режиссер: Энтони Силверстон
Сценарий: Раффаелла Делле Донне, Энтони Силверстон, Джонатан Робертс
Продюсер: Майк Оре, Майк Баклэнд, Бейзил Форд
Композитор: Брюс Ретиф
Художник: Дэниэл Кларк
Монтаж: Люк МакКей

В ролях: Джейк Т. Остин / Jake T. Austin (Khumba, озвучка), Лиам Нисон / Liam Neeson (Phango, озвучка), Стив Бушеми / Steve Buscemi (Skalk, озвучка), Анна-София Робб / AnnaSophia Robb (Tombi, озвучка), Лоренс Фишбёрн / Laurence Fishburne (Seko, озвучка), Грег Эллис / Greg Ellis (Thabo, озвучка), Ричард Э. Грант / Richard E. Grant (Bradley, озвучка), Кэтрин Тейт / Catherine Tate (Nora, озвучка)


Описание: Зебра Кумба с самого рождения был посмешищем всего стада из-за того, что родился наполовину полосатым, а наполовину белым. Хуже того, когда началась Великая Засуха, сородичи решили, что он проклят, и в нем причина всех бед. Стадо изгнало Кумбу, и даже отец отвернулся от него! Отважная полуполосатая зебра отправляется в опасные и веселые приключения, чтобы найти недостающие полоски и заслужить уважение семьи…

Бюджет: $20 000 000
Зрители: Польша 174.6 тыс. , Мексика 105.6 тыс. , Руанда 72.3 тыс.
Премьера (мир): 8 сентября 2013
Премьера (РФ): 3 апреля 2014, «Люксор» 3D



Качество: HDRip
Формат: AVI
Видео кодек: XviD
Аудио кодеk: AC3
Видео: 720x304 (2.35:1), 23.976 fps, XviD, 1 998 Kbps
Аудио: Аудио #1: AC3, 448 Kbps, 48.0 KHz, 6 ch
General
Complete name : Kumba.2013.D.HDRip.1.46Gb.avi
Format : AVI
Format/Info : Audio Video Interleave
File size : 1.46 GiB
Duration : 1h 25mn
Overall bit rate : 2 455 Kbps
Writing application : VirtualDubMod 1.5.10.2 (build 2540/release)
Comment : The Jolly Roger Release Group by http://pirat.ca

Video
ID : 0
Format : MPEG-4 Visual
Format profile : Advanced Simple@L5
Format settings, BVOP : Yes
Format settings, QPel : No
Format settings, GMC : No warppoints
Format settings, Matrix : Default (MPEG)
Codec ID : XVID
Codec ID/Hint : XviD
Duration : 1h 25mn
Bit rate : 1 998 Kbps
Width : 720 pixels
Height : 304 pixels
Display aspect ratio : 2.35:1
Frame rate : 23.976 fps
Color space : YUV
Chroma subsampling : 4:2:0
Bit depth : 8 bits
Scan type : Progressive
Bits/(Pixel*Frame) : 0.381
Stream size : 1.19 GiB (81%)
Writing library : XviD 1.2.0.dev47 (UTC 2006-11-01)

Audio
ID : 1
Format : AC-3
Format/Info : Audio Coding 3
Mode extension : CM (complete main)
Codec ID : 2000
Duration : 1h 25mn
Bit rate mode : Constant
Bit rate : 448 Kbps
Channel(s) : 6 channels
Channel positions : Front: L C R, Side: L R, LFE
Sampling rate : 48.0 KHz
Bit depth : 16 bits
Stream size : 273 MiB (18%)
Alignment : Split accross interleaves
Interleave, duration : 42 ms (1.00 video frame)
Interleave, preload duration : 500 ms
info [Профиль]  [ЛС] 

post 26-Янв-2014 11:40 (спустя 33 секунды) [-]0[+]

Топик был перенесен из форума Оформление раздач (Кинематограф) в форум Rips

koss555
 

post 02-Апр-2014 14:04 (спустя 2 месяца 7 дней) [-]0[+]

Топик был перенесен из форума Rips в форум Зарубежные полнометражные мультфильмы

BZzz
 
Показать сообщения:    
Ответить на тему

Текущее время: 05-Дек 22:40

Часовой пояс: GMT + 4



Вы не можете начинать темы
Вы не можете отвечать на сообщения
Вы не можете редактировать свои сообщения
Вы не можете удалять свои сообщения
Вы не можете голосовать в опросах
Вы не можете прикреплять файлы к сообщениям
Вы не можете скачивать файлы