Ошибка

Вальврэйв Освободитель [ТВ-1] / Kakumeiki Valvrave / Valvrave the Liberator [01-12 из 12] [2013] [приключения, фантастика, меха] [BDRip] [720p] [Любительский(JAP+SUB)]

Ответить на тему
 
Автор Сообщение

L

Пол: Пол:Муж

Стаж: 6 лет 7 месяцев

Сообщений: 10779

Украина
Рейтинг

post 25-Янв-2014 11:25 1[+]

[Цитировать] 


Год выпуска: 2013
Страна: Япония
Жанр: приключения, фантастика, меха
Продолжительность: 12 эп. по 24 мин.
Выпуск: c 12.04.2013 по 28.06.2013
Озвучка:
  • двухголосая (муж/жен) от Scrap & Kogarasi (Timecraft)
  • двухголосая (муж/жен) от Zendos & Eladiel (Anilibria)
  • двухголосая (муж/жен) от Cuba77 & Nika_Lenina (Anidub)
Субтитры:
  • русские субтитры от Timecraft (полные/вспомогательные)
      переводчики: reijiimeganeko, AleX_MytH редактор/оформление: AleX_MytH

Режиссер: Мацуо Ко
Студия: Sunrise
Описание:
В далеком будущем люди живут в околоземном пространстве, вокруг Солнца раскинулась огромная сфера Дайсона, а человечество все так же рвут на части междоусобицы. Главными силами конфликта являются германская империя Доруссия, Атлантическая Федерация Арус и экономически успешный, но не богатый военными ресурсами Джиор, наследник маленькой, но гордой островной нации. Доруссия вторгается во владения Джиора в Сфере, торгаши из Аруса бросают бывших союзников, атакованные модули падают в руки врага, как спелые яблоки… кроме одного. А там в чем дело?

Дело в том, что в модуле-77 расположена старшая школа Сакимори, а с японскими… то есть, джиорскими школьниками шутки плохи! Это в мирное время старшеклассник Харуто Токисима – мягкотелый пацифист, мечтающий со всеми жить в дружбе и согласии. Стоит же тронуть пальцем его страну, друзей и близких – и Харуто превращается в смесь берсерка и хитроумного Одиссея, который может одинаково использовать и невесть откуда взявшегося боевого робота, и собственные мозги. Если же к повстанцам по всем законам жанра присоединить перековавшегося шпиона, местного хулигана и школьного идола, то «новые нибелунги» еще сто раз пожалеют, что затеяли свой «дранг нах сферен»!
© Hollow, World Art
Информационные ссылки: AniDB || World Art || MAL
Качество: BDRip
Энкод: Winter - RG Pantheon
Тип видео: без хардсаба
Формат: mkv
Видео: x264 (Hi10p), 1280x720, ~4000 Kbps, 23.976 fps
Аудио JAP: Vorbis, 48000Hz, ~256 Kbps, 2ch
Аудио RUS 1: AC3, 48000Hz, ~192 Kbps, 2ch (внешними файлами)
Аудио RUS 2: AC3, 48000Hz, ~192 Kbps, 2ch (внешними файлами)
Аудио RUS 3: AC3, 48000Hz, ~192 Kbps, 2ch (внешними файлами)
  • двухголосая (муж/жен) от Scrap & Kogarasi (Timecraft)
  • двухголосая (муж/жен) от Zendos & Eladiel (Anilibria)
  • двухголосая (муж/жен) от Cuba77 & Nika_Lenina (Anidub)
01. Revolutionary Transfer Student
02. Beyond 666
03. L-elf`s Prophesy
04. The Hostage Is Valvrave
05. Singing Sakimori Academy
06. Saki, Come Back!
07. Haruto Under the Rubble
08. Princess of Light
09. Dogs and Thunder
10. Campaign Promise of Love
11. Military Tribunal #54
12. Rise of the Heretic
От этой раздачи - BDRip, больше озвучек
Общее
Уникальный идентификатор : 198429019833443027292906809234055972344 (0x95480A0353AC47E5B4A97EE44EE345F8)
Полное имя : Z:\Anime\720p\Kakumeiki Valvrave [BD] [720p]\[Winter] Kakumeiki Valvrave 01 [BDrip 1280x720 x264 Vorbis].mkv
Формат : Matroska
Версия формата : Version 2
Размер файла : 987 Мбайт
Продолжительность : 24 м.
Режим общего битрейта : Переменный
Общий поток : 5641 Кбит/сек
Дата кодирования : UTC 2013-08-04 17:18:03
Программа кодирования : mkvmerge v2.9.8 ('C'est le bon') built on Aug 13 2009 12:49:06
Библиотека кодирования : libebml v0.7.7 + libmatroska v0.8.1

Видео
Идентификатор : 1
Формат : AVC
Формат/Информация : Advanced Video Codec
Профиль формата : High 10@L4.1
Параметр CABAC формата : Да
Параметр ReFrames формата : 9 кадров
Идентификатор кодека : V_MPEG4/ISO/AVC
Продолжительность : 24 м.
Битрейт : 5272 Кбит/сек
Ширина : 1280 пикселей
Высота : 720 пикселей
Соотношение сторон : 16:9
Режим частоты кадров : Постоянный
Частота кадров : 23,976 кадра/сек
Цветовое пространство : YUV
Субдискретизация насыщенности : 4:2:0
Битовая глубина : 10 бит
Тип развёртки : Прогрессивная
Бит/(Пиксели*Кадры) : 0.239
Размер потока : 923 Мбайт (93%)
Библиотека кодирования : x264 core 132 r2309 3b1f1f7
Настройки программы : cabac=1 / ref=9 / deblock=1:-2:-2 / analyse=0x3:0x133 / me=umh / subme=9 / psy=1 / psy_rd=0.90:0.00 / mixed_ref=1 / me_range=24 / chroma_me=1 / trellis=2 / 8x8dct=1 / cqm=0 / deadzone=21,11 / fast_pskip=1 / chroma_qp_offset=-2 / threads=6 / lookahead_threads=1 / sliced_threads=0 / nr=0 / decimate=0 / interlaced=0 / bluray_compat=0 / constrained_intra=0 / bframes=8 / b_pyramid=2 / b_adapt=2 / b_bias=0 / direct=1 / weightb=1 / open_gop=0 / weightp=2 / keyint=250 / keyint_min=23 / scenecut=40 / intra_refresh=0 / rc=crf / mbtree=0 / crf=15.8 / qcomp=0.70 / qpmin=9 / qpmax=40 / qpstep=4 / ip_ratio=1.40 / pb_ratio=1.30 / aq=1:0.90
Default : Нет
Forced : Нет

Аудио
Идентификатор : 2
Формат : Vorbis
Параметр Floor формата : 1
Идентификатор кодека : A_VORBIS
Продолжительность : 24 м.
Вид битрейта : Переменный
Битрейт : 256 Кбит/сек
Каналы : 2 канала
Частота : 48,0 КГц
Метод сжатия : С потерями
Размер потока : 44,8 Мбайт (5%)
Библиотека кодирования : libVorbis (Schaufenugget) (20101101 (Schaufenugget))
Язык : Japanese
Default : Да
Forced : Нет


info [Профиль]  [ЛС] 

luc1kJke

Пол: Пол:Муж

Стаж: 6 лет 9 месяцев

Сообщений: 167

Россия
Рейтинг

post 21-Мар-2014 14:52 (спустя 1 месяц 27 дней) [-]0[+]

[Цитировать] 

Похоже Япония до сих пор обижается что СССР им по результатам второй мировой не отдала свои острова. Побеждённый всегда затаивает обиду.

_________________
info [Профиль]  [ЛС] 
Показать сообщения:    
Ответить на тему

Текущее время: 04-Дек 18:16

Часовой пояс: GMT + 4



Вы не можете начинать темы
Вы не можете отвечать на сообщения
Вы не можете редактировать свои сообщения
Вы не можете удалять свои сообщения
Вы не можете голосовать в опросах
Вы не можете прикреплять файлы к сообщениям
Вы не можете скачивать файлы