Ошибка

Как и ожидал, моя школьная романтическая жизнь не удалась. / Yahari Ore no Seishun Love Come wa Machigatteiru. / OreGairu (Ёсимура Ай) [OVA][2013][комедия][BDRip][720p][Любительский(JAP+SUB)]

Ответить на тему
 
Автор Сообщение

L

Пол: Пол:Муж

Стаж: 6 лет 7 месяцев

Сообщений: 10765

Украина
Рейтинг

post 24-Янв-2014 20:00 2[+]

[Цитировать] 


Год выпуска: 2013
Страна: Япония
Жанр: комедия, школа
Продолжительность: 1 эп. по 24 мин.
Премьера: 19.09.2013
Озвучка:
  • двухголосая (муж./жен.) от Cuba77 & Trina_D (AniDub)
  • двухголосая (муж./жен.) от Mukuro & Mosa (Anifilm)
  • двухголосая (муж./жен.) от Zendos & Eladiel (Anilibria)
Субтитры:
  • русские субтитры от Sa4ko aka Kiyoso & Zenobian (полные/вспомогательные)

Режиссер: Ёсимура Ай
Студия: Brains Base
Описание:
17-летний Хатиман Хикигая – юный циник и пессимист, уверенный, что «весна юности», дружба и любовь - обман, ложь и фикция, а поддержание сего мифа есть коллективный заговор тех, кто обжегся и ничего не получил, но не хочет признавать очевидного. Молодая учительница Сидзука Хирацука оказалась не в силах переубедить проблемного ученика и в отчаянии отправила его в «клуб служения», единственным членом которого числится звезда школы Юкино Юкиносита. А может, на деле сэнсэй не так уж проста и поняла, что помощь требуется обоим?

Дело в том, что Юкиноситу, при всем внешнем совершенстве, тоже заносит, и девушка искренне считает, что на гениях (вроде нее) лежит тяжкий крест служения «простым смертным», который надо нести, не жалуясь. Тут неглупый и язвительный Хикигая и пригодится для избавления красавицы от мании величия, а сам он в дискуссиях с Юкино поймет, что роль вселенского страдальца – не судьба, а маска, причем не самая лучшая. Ну а примкнувшая к клубу живая и веселая Юи Юигахама сможет личным примером показать героям, что они, при всех талантах – обычные подростки, которым не ерундой маяться надо, а быть проще и наслаждаться той самой весной юности, единственной и неповторимой!
© Hollow, World Art

Бонус к эксклюзивному ограниченному изданию игры Yahari Game demo Ore no Seishun Lovecome wa Machigatteiru (やはりゲームでも俺の青春ラブコメはまちがっている).
Информационные ссылки: AniDB || World Art || MAL
Качество: BDRip
Энкод: Winter - RG Pantheon
Тип видео: без хардсаба
Формат: mkv
Видео: x264 (Hi10p), 1280x720, ~2000 Kbps, 23.976 fps
Аудио JAP: Vorbis, 48000Hz, ~256 Kbps, 2ch
Аудио RUS 1: AC3, 48000Hz, ~192 Kbps, 2ch (внешними файлами)
Аудио RUS 2: AC3, 48000Hz, ~192 Kbps, 2ch (внешними файлами)
Аудио RUS 3: AC3, 48000Hz, ~192 Kbps, 2ch (внешними файлами)
  • двухголосая (муж./жен.) от Cuba77 & Trina_D (AniDub)
  • двухголосая (муж./жен.) от Mukuro & Mosa (Anifilm)
  • двухголосая (муж./жен.) от Zendos & Eladiel (Anilibria)
Общее
Уникальный идентификатор : 227262109227495536634633983614140752261 (0xAAF91713527CD750920F2598E5EF2185)
Полное имя : Z:\Anime\720p\OreGairu OVA [BD] [720p]\[Winter] Yahari Ore no Seishun Lovecome wa Machigatte Iru OAD [BDrip 1280x720 x264 Vorbis].mkv
Формат : Matroska
Версия формата : Version 2
Размер файла : 436 Мбайт
Продолжительность : 23 м.
Режим общего битрейта : Переменный
Общий поток : 2574 Кбит/сек
Дата кодирования : UTC 2013-09-29 15:48:02
Программа кодирования : mkvmerge v2.9.8 ('C'est le bon') built on Aug 13 2009 12:49:06
Библиотека кодирования : libebml v0.7.7 + libmatroska v0.8.1

Видео
Идентификатор : 1
Формат : AVC
Формат/Информация : Advanced Video Codec
Профиль формата : High 10@L4.1
Параметр CABAC формата : Да
Параметр ReFrames формата : 9 кадров
Идентификатор кодека : V_MPEG4/ISO/AVC
Продолжительность : 23 м.
Битрейт : 2267 Кбит/сек
Ширина : 1280 пикселей
Высота : 720 пикселей
Соотношение сторон : 16:9
Режим частоты кадров : Постоянный
Частота кадров : 23,976 кадра/сек
Цветовое пространство : YUV
Субдискретизация насыщенности : 4:2:0
Битовая глубина : 10 бит
Тип развёртки : Прогрессивная
Бит/(Пиксели*Кадры) : 0.103
Размер потока : 384 Мбайт (88%)
Библиотека кодирования : x264 core 132 r2309 3b1f1f7
Настройки программы : cabac=1 / ref=9 / deblock=1:-2:-2 / analyse=0x3:0x133 / me=umh / subme=9 / psy=1 / psy_rd=0.90:0.00 / mixed_ref=1 / me_range=24 / chroma_me=1 / trellis=2 / 8x8dct=1 / cqm=0 / deadzone=21,11 / fast_pskip=1 / chroma_qp_offset=-2 / threads=6 / lookahead_threads=1 / sliced_threads=0 / nr=0 / decimate=0 / interlaced=0 / bluray_compat=0 / constrained_intra=0 / bframes=8 / b_pyramid=2 / b_adapt=2 / b_bias=0 / direct=1 / weightb=1 / open_gop=0 / weightp=2 / keyint=250 / keyint_min=23 / scenecut=40 / intra_refresh=0 / rc=crf / mbtree=0 / crf=15.6 / qcomp=0.70 / qpmin=9 / qpmax=40 / qpstep=4 / ip_ratio=1.40 / pb_ratio=1.30 / aq=1:0.90
Default : Нет
Forced : Нет

Аудио
Идентификатор : 2
Формат : Vorbis
Параметр Floor формата : 1
Идентификатор кодека : A_VORBIS
Продолжительность : 23 м.
Вид битрейта : Переменный
Битрейт : 256 Кбит/сек
Каналы : 2 канала
Частота : 48,0 КГц
Метод сжатия : С потерями
Размер потока : 43,4 Мбайт (10%)
Библиотека кодирования : libVorbis (Schaufenugget) (20101101 (Schaufenugget))
Язык : Japanese
Default : Да
Forced : Нет


info [Профиль]  [ЛС] 
Показать сообщения:    
Ответить на тему

Текущее время: 04-Дек 08:03

Часовой пояс: GMT + 4



Вы не можете начинать темы
Вы не можете отвечать на сообщения
Вы не можете редактировать свои сообщения
Вы не можете удалять свои сообщения
Вы не можете голосовать в опросах
Вы не можете прикреплять файлы к сообщениям
Вы не можете скачивать файлы