Ошибка

Воспоминания о будущем / Memories [Movie][1995][фантастика, драма, комедия][BDRip][720p][Профессиональный (JAP+SUB)]

Ответить на тему
 
Автор Сообщение

Sunny17

Пол: Пол:Жен

Стаж: 7 лет 3 месяца

Сообщений: 733

Россия
Рейтинг

post 21-Окт-2009 13:21 1[+]

[Цитировать] 

Воспоминания о будущем | Memories | メモリーズ

Премьера: 19.08.2006
Страна:
Жанр: фантастика, драма, комедия
Тип: полнометражный фильм
Продолжительность:
  • «Магнетическая роза» 00:44:21
  • «Вонючая бомба» 00:37:48
  • «Пушечное мясо» 00:28:49

Режиссер Моримото Кодзи, Окамура Тэнсай, Отомо Кацухиро
Студия:

Перевод:
  • Профессиональный (многоголосый, закадровый) [MC]
Субтитры:
  • Русские (внешние, str)
  • Английские (встроенные)

Описание: Авторы разбили «Воспоминания» на три истории. Таким образом получилось три фильма в одном, с разными героями и разными сюжетами.

«Магнетическая роза» | Magnetic Rose | 彼女の想いで
Самый мощный и стремительный эпизод из трех. Основан на аристократической готике, смешанной с космическим сюжетом. Наверное, это единственный фильм, в котором можно увидеть летающий корабль вместе с платьями конца XIX века под невероятную музыку филармонического оркестра и оперное пение. История Кона Сатоси убаюкивает нас словно детей, для того чтобы через мгновение погрузить уже в другую реальность: где торжествуют мрачные краски, печальные лица, полные одиночества в безграничном пространстве космоса. А потом откуда-то берется трава, солнце, снова пение и снова темные краски. Таков эпизод «Магнетическая роза», имеющий все атрибуты мощного анимационного фильма, написать сценарий которого мог только режиссер «Идеальной синевы». Таким был «Акира», таким был конец сериала «Евангелиона», эту же атмосферу непонятных сочетаний и умопомрачительных нонсенсов мы видим и в «Магнетической розе».

«Вонючая бомба» | Stink Bomb | 最臭兵器
После запутанного космического эпизода рука автора мастерски переносит нас в Японию, рисует милый и привычный мирок, который мы видим каждый день из окон, и разбавляет все это таким же легким саундтреком. Просто разгрузка. Сюжет этого эпизода будто вытащен из кулуаров какой-то голливудской студии: он прост, легок и ясен. Не надо думать, лицо само улыбается, а иногда вытягивается. В этом эпизоде автор смело решил дать себе волю и поэтому не стеснялся задействовать ни императора Японии, ни главнокомандующих, ни НАСА, ни прочую атрибутику. Результат получен, зритель доволен и может снова принять лекарство для мозгов.

«Пушечное мясо» | Cannon Fodder | 大砲の街
А лекарство носит название «Пушечное мясо». Арт-стилистика похожа на смесь детских сказок Астрид Лингрен в интерпретации наших художников с пейзажами Final Fantasy IX (Playstation): скандинавские домики, холодная атмосфера, большие пушки, торчащие из города во все стороны. Но ни сказки, ни фэнтези тут нет — это не нужно, сюжет не о том. На этот раз, погрузив зрителя в такой вот мир, который непонятно на какой земле существует и непонятно в каком времени живет, Отомо Кацухиро показывает загадочную нацию, до боли напоминающую наш бывший Советский Союз. Тут тоже идет война, но никто не знает с кем. Вся жизнь этого чудо-городка протекает от запуска одной бомбы до другой. Дети просыпаются с сиреной и ложатся под свет прожекторов. А ближе к концу эпизода присутствует коронная фраза: «Папа, а с кем мы воюем?» Папа отсылает сына в кровать и задумчиво смотрит рисунок мальчика, на котором цветными карандашами изображены пушки.

Качество: BDRip, 720p
Хардсаб: Отсутствует
Формат: MKV
Видео:
  • «Магнетическая роза» - AVC, 1280х704 (16/9), 23.976 fps, 4850 Kbps
  • «Вонючая бомба» - AVC, 1280х692 (1.850), 23.976 fps, 4850 Kbps
  • «Пушечное мясо» - AVC, 1280х668 (1.916), 23.976 fps, 4850 Kbps
Аудио:
  • - AC3, 48.0 KHz, 6 channels (Front: L C R, Rear: L R, LFE), 448 Kbps
  • - AC3, 48.0 KHz, 6 channels (Front: L C R, Rear: L R, LFE), 640 Kbps
Общее
Уникальный идентификатор : 174546881629592452634205738084009384550 (0x835081B0BBB3192FB52C3E80BE4E1A66)
Полное имя : D:\АНИМЕ\Воспоминания о будущем [Memories]. 1995. Blu-RayRip. 720p. A(Jp, Ru). S(Ru, En)\Memories 1 - Magnetic Rose.mkv
Формат : Matroska
Размер файла : 1,84 Гбайт
Продолжительность : 44 м.
Общий поток : 5943 Кбит/сек
Название фильма : Memories1 - Magnetic Rose [720p,BluRay,x264] - THORA
Дата кодирования : UTC 2008-01-01 15:20:51
Программа кодирования : mkvmerge v2.0.2 ('You're My Flame') built on Feb 21 2007 23:40:55
Библиотека кодирования : libebml v0.7.7 + libmatroska v0.8.1
Обложка : Yes

Видео
Идентификатор : 1
Формат : AVC
Формат/Информация : Advanced Video Codec
Профиль формата : High@L5.1
Параметр CABAC формата : Да
Параметр ReFrames формата : 13 кадров
Идентификатор кодека : V_MPEG4/ISO/AVC
Продолжительность : 44 м.
Битрейт : 4850 Кбит/сек
Ширина : 1280 пикс.
Высота : 704 пикс.
Соотношение сторон : 16:9
Частота кадров : 23,976 кадр/сек
Цветовое пространство : YUV
Подвыборка цветности : 4:2:0
Битовая глубина : 8 бит
Тип развёртки : Прогрессивная
Бит/(Пиксели*Кадры) : 0.224
Размер потока : 1,47 Гбайт (80%)
Заголовок : Memories - Magnetic Rose
Библиотека кодирования : x264 core 57 svn-709C
Настройки программы : cabac=1 / ref=10 / deblock=1:-3:-3 / analyse=0x3:0x133 / me=umh / fpel_cmp=sad / subme=7 / me-prepass=0 / brdo=1 / mixed_ref=1 / me_range=16 / chroma_me=1 / trellis=0 / 8x8dct=1 / cqm=2 / deadzone=9,9 / chroma_qp_offset=0 / threads=6 / nr=0 / decimate=1 / mbaff=0 / bframes=6 / b_pyramid=1 / b_adapt=1 / b_bias=0 / direct=1 / wpredb=1 / bime=1 / keyint=250 / keyint_min=25 / scenecut=40(pre) / rc=2pass / bitrate=4850 / ratetol=1.0 / rceq='blurCplx^(1-qComp)' / qcomp=0.60 / qpmin=10 / qpmax=51 / qpstep=4 / cplxblur=20.0 / qblur=0.5 / ip_ratio=1.40 / pb_ratio=1.30 / aq=1:0.7:15.0
Язык : Japanese

Аудио #1
Идентификатор : 2
Формат : AC-3
Формат/Информация : Audio Coding 3
Расширение режима : CM (complete main)
Идентификатор кодека : A_AC3
Продолжительность : 44 м.
Вид битрейта : Постоянный
Битрейт : 640 Кбит/сек
Каналы : 6 каналов
Расположение каналов : Front: L C R, Side: L R, LFE
Частота : 48,0 КГц
Битовая глубина : 16 бит
Метод сжатия : С потерями
Размер потока : 203 Мбайт (11%)
Заголовок : Jp
Язык : Japanese

Аудио #2
Идентификатор : 4
Формат : AC-3
Формат/Информация : Audio Coding 3
Расширение режима : CM (complete main)
Идентификатор кодека : A_AC3
Продолжительность : 44 м.
Вид битрейта : Постоянный
Битрейт : 448 Кбит/сек
Каналы : 6 каналов
Расположение каналов : Front: L C R, Side: L R, LFE
Частота : 48,0 КГц
Битовая глубина : 16 бит
Метод сжатия : С потерями
Размер потока : 142 Мбайт (8%)
Заголовок : Ru
Язык : Russian

Текст
Идентификатор : 3
Формат : ASS
Идентификатор кодека : S_TEXT/ASS
Идентификатор кодека/Информация : Advanced Sub Station Alpha
Метод сжатия : Без потерь
Язык : English

Общее
Полное имя : D:\АНИМЕ\Воспоминания о будущем [Memories]. 1995. Blu-RayRip. 720p. A(Jp, Ru). S(Ru, En)\Memories 1 - Magnetic Rose.srt
Формат : SubRip
Размер файла : 29,5 Кбайт

Текст
Формат : SubRip
Метод сжатия : Без потерь

Общее
Уникальный идентификатор : 220070055225704827318377809495581695884 (0xA58FF36FA36125ECB0D487EE8E029F8C)
Полное имя : D:\АНИМЕ\Воспоминания о будущем [Memories]. 1995. Blu-RayRip. 720p. A(Jp, Ru). S(Ru, En)\Memories 2 - Stink Bomb.mkv
Формат : Matroska
Размер файла : 1,67 Гбайт
Продолжительность : 40 м.
Общий поток : 5946 Кбит/сек
Название фильма : Memories2 - Stink Bomb [720p,BluRay,x264] - THORA.mkv
Дата кодирования : UTC 2008-01-01 15:50:18
Программа кодирования : mkvmerge v2.0.2 ('You're My Flame') built on Feb 21 2007 23:40:55
Библиотека кодирования : libebml v0.7.7 + libmatroska v0.8.1
Обложка : Yes / Yes / Yes / Yes / Yes / Yes / Yes / Yes / Yes / Yes

Видео
Идентификатор : 1
Формат : AVC
Формат/Информация : Advanced Video Codec
Профиль формата : High@L5.1
Параметр CABAC формата : Да
Параметр ReFrames формата : 13 кадров
Идентификатор кодека : V_MPEG4/ISO/AVC
Продолжительность : 40 м.
Битрейт : 4850 Кбит/сек
Ширина : 1280 пикс.
Высота : 692 пикс.
Соотношение сторон : 1,850
Частота кадров : 23,976 кадр/сек
Цветовое пространство : YUV
Подвыборка цветности : 4:2:0
Битовая глубина : 8 бит
Тип развёртки : Прогрессивная
Бит/(Пиксели*Кадры) : 0.228
Размер потока : 1,33 Гбайт (80%)
Заголовок : Memories - Stink Bomb
Библиотека кодирования : x264 core 57 svn-709C
Настройки программы : cabac=1 / ref=10 / deblock=1:-3:-3 / analyse=0x3:0x133 / me=umh / fpel_cmp=sad / subme=7 / me-prepass=0 / brdo=1 / mixed_ref=1 / me_range=16 / chroma_me=1 / trellis=0 / 8x8dct=1 / cqm=2 / deadzone=15,9 / chroma_qp_offset=0 / threads=6 / nr=0 / decimate=1 / mbaff=0 / bframes=6 / b_pyramid=1 / b_adapt=1 / b_bias=0 / direct=1 / wpredb=1 / bime=1 / keyint=250 / keyint_min=25 / scenecut=40(pre) / rc=2pass / bitrate=4850 / ratetol=1.0 / rceq='blurCplx^(1-qComp)' / qcomp=0.60 / qpmin=10 / qpmax=51 / qpstep=4 / cplxblur=20.0 / qblur=0.5 / ip_ratio=1.40 / pb_ratio=1.30 / aq=1:0.7:15.0
Язык : Japanese

Аудио #1
Идентификатор : 2
Формат : AC-3
Формат/Информация : Audio Coding 3
Расширение режима : CM (complete main)
Идентификатор кодека : A_AC3
Продолжительность : 40 м.
Вид битрейта : Постоянный
Битрейт : 640 Кбит/сек
Каналы : 6 каналов
Расположение каналов : Front: L C R, Side: L R, LFE
Частота : 48,0 КГц
Битовая глубина : 16 бит
Метод сжатия : С потерями
Размер потока : 184 Мбайт (11%)
Заголовок : Jp
Язык : Japanese

Аудио #2
Идентификатор : 4
Формат : AC-3
Формат/Информация : Audio Coding 3
Расширение режима : CM (complete main)
Идентификатор кодека : A_AC3
Продолжительность : 40 м.
Вид битрейта : Постоянный
Битрейт : 448 Кбит/сек
Каналы : 6 каналов
Расположение каналов : Front: L C R, Side: L R, LFE
Частота : 48,0 КГц
Битовая глубина : 16 бит
Метод сжатия : С потерями
Размер потока : 129 Мбайт (8%)
Заголовок : Ru
Язык : Russian

Текст
Идентификатор : 3
Формат : ASS
Идентификатор кодека : S_TEXT/ASS
Идентификатор кодека/Информация : Advanced Sub Station Alpha
Метод сжатия : Без потерь
Язык : English

Общее
Полное имя : D:\АНИМЕ\Воспоминания о будущем [Memories]. 1995. Blu-RayRip. 720p. A(Jp, Ru). S(Ru, En)\Memories 2 - Stink Bomb.srt
Формат : SubRip
Размер файла : 25,7 Кбайт

Текст
Формат : SubRip
Метод сжатия : Без потерь

Общее
Уникальный идентификатор : 243702866815458311654148987801005263040 (0xB7577701EF9BBA2281758105D2A108C0)
Полное имя : D:\АНИМЕ\Воспоминания о будущем [Memories]. 1995. Blu-RayRip. 720p. A(Jp, Ru). S(Ru, En)\Memories 3 - Cannon Fodder.mkv
Формат : Matroska
Размер файла : 1,20 Гбайт
Продолжительность : 28 м.
Общий поток : 5940 Кбит/сек
Название фильма : Memories3 - Cannon Fodder [720p,BluRay,x264] - THORA.mkv
Дата кодирования : UTC 2007-12-31 12:27:29
Программа кодирования : mkvmerge v2.0.2 ('You're My Flame') built on Feb 21 2007 23:40:55
Библиотека кодирования : libebml v0.7.7 + libmatroska v0.8.1
Обложка : Yes

Видео
Идентификатор : 1
Формат : AVC
Формат/Информация : Advanced Video Codec
Профиль формата : High@L5.1
Параметр CABAC формата : Да
Параметр ReFrames формата : 13 кадров
Идентификатор кодека : V_MPEG4/ISO/AVC
Продолжительность : 28 м.
Битрейт : 4850 Кбит/сек
Ширина : 1280 пикс.
Высота : 668 пикс.
Соотношение сторон : 1,916
Частота кадров : 23,976 кадр/сек
Цветовое пространство : YUV
Подвыборка цветности : 4:2:0
Битовая глубина : 8 бит
Тип развёртки : Прогрессивная
Бит/(Пиксели*Кадры) : 0.237
Размер потока : 976 Мбайт (80%)
Заголовок : Memories - Cannon Fodder
Библиотека кодирования : x264 core 57 svn-709C
Настройки программы : cabac=1 / ref=10 / deblock=1:-3:-3 / analyse=0x3:0x133 / me=umh / fpel_cmp=sad / subme=7 / me-prepass=0 / brdo=1 / mixed_ref=1 / me_range=16 / chroma_me=1 / trellis=0 / 8x8dct=1 / cqm=2 / deadzone=11,9 / chroma_qp_offset=0 / threads=6 / nr=0 / decimate=1 / mbaff=0 / bframes=6 / b_pyramid=1 / b_adapt=1 / b_bias=0 / direct=1 / wpredb=1 / bime=1 / keyint=250 / keyint_min=25 / scenecut=40(pre) / rc=2pass / bitrate=4850 / ratetol=1.0 / rceq='blurCplx^(1-qComp)' / qcomp=0.60 / qpmin=10 / qpmax=51 / qpstep=4 / cplxblur=20.0 / qblur=0.5 / ip_ratio=1.40 / pb_ratio=1.30 / aq=1:0.7:15.0
Язык : Japanese

Аудио #1
Идентификатор : 2
Формат : AC-3
Формат/Информация : Audio Coding 3
Расширение режима : CM (complete main)
Идентификатор кодека : A_AC3
Продолжительность : 28 м.
Вид битрейта : Постоянный
Битрейт : 640 Кбит/сек
Каналы : 6 каналов
Расположение каналов : Front: L C R, Side: L R, LFE
Частота : 48,0 КГц
Битовая глубина : 16 бит
Метод сжатия : С потерями
Размер потока : 132 Мбайт (11%)
Заголовок : Jp
Язык : Japanese

Аудио #2
Идентификатор : 4
Формат : AC-3
Формат/Информация : Audio Coding 3
Расширение режима : CM (complete main)
Идентификатор кодека : A_AC3
Продолжительность : 28 м.
Вид битрейта : Постоянный
Битрейт : 448 Кбит/сек
Каналы : 6 каналов
Расположение каналов : Front: L C R, Side: L R, LFE
Частота : 48,0 КГц
Битовая глубина : 16 бит
Метод сжатия : С потерями
Размер потока : 92,4 Мбайт (8%)
Заголовок : Ru
Язык : Russian

Текст
Идентификатор : 3
Формат : ASS
Идентификатор кодека : S_TEXT/ASS
Идентификатор кодека/Информация : Advanced Sub Station Alpha
Метод сжатия : Без потерь
Язык : English

Общее
Полное имя : D:\АНИМЕ\Воспоминания о будущем [Memories]. 1995. Blu-RayRip. 720p. A(Jp, Ru). S(Ru, En)\Memories 3 - Cannon Fodder.srt
Формат : SubRip
Размер файла : 12,0 Кбайт

Текст
Формат : SubRip
Метод сжатия : Без потерь
info [Профиль]  [ЛС] 

dice83

Предупреждений: 1

Рейтинг

post 22-Окт-2009 01:51 (спустя 12 часов) [-]0[+]

[Цитировать] 

Это как раз искалось!
 

mazillla

Предупреждений: 1

Рейтинг

post 22-Окт-2009 02:07 (спустя 16 минут) [-]0[+]

[Цитировать] 

Sunny17

Спасибо за Кацухиро Отомо. Кто не в курсе, в копилке этого замечательного режиссера есть еще несколько неординарных работ: Карнавал роботов, Лабиринт сновидений, Стимбой.
 

Sunny17

Пол: Пол:Жен

Стаж: 7 лет 3 месяца

Сообщений: 733

Россия
Рейтинг

post 22-Окт-2009 02:34 (спустя 27 минут) [-]0[+]

[Цитировать] 

mazillla
Улыбаюсь Пожалуйста

_________________
info [Профиль]  [ЛС] 

swift32

Пол: Пол:Муж

Стаж: 6 лет 9 месяцев

Сообщений: 239

Предупреждений: 1

Рейтинг

post 17-Апр-2010 12:56 (спустя 5 месяцев 26 дней) [-]0[+]

[Цитировать] 

Вспомнил эпоху модемов )
info [Профиль]  [ЛС] 

Sunny17

Пол: Пол:Жен

Стаж: 7 лет 3 месяца

Сообщений: 733

Россия
Рейтинг

post 13-Авг-2010 10:09 (спустя 3 месяца 25 дней) [-]1[+]

[Цитировать] 

Стою на раздаче! Скорость не ахтевая - поэтому не ругайтесь kolob_111

_________________
info [Профиль]  [ЛС] 

RomBom

Пол: Пол:Муж

Стаж: 7 лет 2 месяца

Сообщений: 59

Рейтинг

post 30-Июн-2011 22:01 (спустя 10 месяцев 17 дней) [-]0[+]

[Цитировать] 

Чудесная анимация, очень интересный смысл первых двух частей фильма, а вот третья часть, там где про пушки - совсем не понравилась.

Кто-то уловил смысл третей части данного фильма?
info [Профиль]  [ЛС] 

Tabito san

Пол: Пол:Муж

Стаж: 5 лет 5 месяцев

Сообщений: 37

Предупреждений: 1

Украина
Рейтинг

post 30-Июн-2011 23:16 (спустя 1 час 14 минут) [-]1[+]

[Цитировать] 

RomBom писал(а):

Кто-то уловил смысл третей части данного фильма?
Научная фантастика одни словом.
Смотрел давно, так и не вспомню.
Первая скорее о сумречности наших воспоминаний и тлености нашей памяти. Что бла-бла-бла живем в иллюзии - не ново.
Второй я так и не вспомню.
Бомба вонючка, чем-то дейр напомнило, про планету - оружие.
там тема тоже банальна, "война никогда не меняется". Уже столько разсусолили на эту тему, что тошно. А здесь в очередной раз подняли вопрос её четности.

Как мне любителю НФ, все меморизы видятся банальщиной воплощенной в дорогой лоск большого бюджета. Глянуть можно, но копать дальше не хочется.
Лучше уже в очередной раз разобрать Леин по кусочкам.

_________________
Отрадно спать - отрадней камнем быть.
В этот век - холодный и пустой
Не жить, не чувствовать - удел завидный...
Прошу: молчи - не смей меня будить!
info [Профиль]  [ЛС] 
Показать сообщения:    
Ответить на тему

Текущее время: 05-Дек 18:31

Часовой пояс: GMT + 4



Вы не можете начинать темы
Вы не можете отвечать на сообщения
Вы не можете редактировать свои сообщения
Вы не можете удалять свои сообщения
Вы не можете голосовать в опросах
Вы не можете прикреплять файлы к сообщениям
Вы не можете скачивать файлы