Ошибка

Иван Царевич и Серый Волк 2 (Владимир Торопчин) [2013, мультфильм, приключения, семейный, фэнтези, DVDRip-AVC]

Ответить на тему
 
Автор Сообщение

L

Пол: Пол:Муж

Стаж: 6 лет 7 месяцев

Сообщений: 10808

Украина
Рейтинг

post 17-Янв-2014 09:46 2[+]

[Цитировать] 

Иван Царевич и Серый Волк 2

Страна: Россия
Жанр: мультфильм, приключения, семейный, фэнтези
Год выпуска: 2013
Продолжительность: 01:09:46
Перевод: Оригинал [Лицензия]
Субтитры: ---
Оригинальная дорожка: ---
Главы: ---

Режиссер: Владимир Торопчин
В ролях: Никита Ефремов, Татьяна Бунина, Иван Охлобыстин, Михаил Боярский, Ирина Рахманова, Александр Боярский
Описание: В Тридевятом царстве, где живут наши герои — тишь, да благодать. Иван женился на Василисе, и «жили они долго и счастливо», да не тут-то было. Иван целыми днями пропадает с Волком на службе — укрепляет рубежи и оборонную мощь, мечтает перевести стрелки часов на семь часов назад, чтобы меньше спать, и больше работать. А Василисе — скучно, как всем девушкам, ей хочется романтики, ну, такой, как в сказках. И тогда она решает организовать свое похищение… Однако, когда такое бывало, что в сказках все получалось так, как задумывалось?
Кинопоиск 5.2 | Сэмпл
Качество видео: DVDRip-AVC (энкод L)
Формат видео: MKV

Видео: AVC / High@L4.1 / 720 @ 1024 x 576 / 2549 Kbps / 16:9
Аудио: Russian: 48 kHz, AC3 Dolby Digital, 3/2 (L,C,R,l,r) + LFE ch, ~448 kbps

Раздача от
Ivan.Tsarevich.i.Seriy.Volk.2.O.DVD-5

Код:

Общее
Уникальный идентификатор                 : 203714758412542682538058369214543260616 (0x9942090BA6B31A92A034057C67136BC8)
Полное имя                               : D:\25Kadr\Ivan.Carevich.2.2013.DVD.Rip.x264.ac3.rus_by.L.mkv
Формат                                   : Matroska
Версия формата                           : Version 2
Размер файла                             : 1,46 Гбайт
Продолжительность                        : 1 ч. 9 м.
Общий поток                              : 2992 Кбит/сек
Название фильма                          : L @ Tapochek.net: Иван Царевич и Серый Волк 2 [2013]
Дата кодирования                         : UTC 2014-01-17 05:29:26
Программа кодирования                    : mkvmerge v3.2.0 ('Beginnings') built on Feb 12 2010 16:46:17
Библиотека кодирования                   : libebml v0.7.9 + libmatroska v0.8.1

Видео
Идентификатор                            : 1
Формат                                   : AVC
Формат/Информация                        : Advanced Video Codec
Профиль формата                          : High@L4.1
Параметр CABAC формата                   : Да
Параметр ReFrames формата                : 10 кадров
Идентификатор кодека                     : V_MPEG4/ISO/AVC
Продолжительность                        : 1 ч. 9 м.
Битрейт                                  : 2542 Кбит/сек
Ширина                                   : 720 пикселей
Высота                                   : 576 пикселей
Соотношение сторон                       : 16:9
Режим частоты кадров                     : Постоянный
Частота кадров                           : 25,000 кадров/сек
Стандарт вещания                         : PAL
Цветовое пространство                    : YUV
Субдискретизация насыщенности            : 4:2:0
Битовая глубина                          : 8 бит
Тип развёртки                            : Прогрессивная
Бит/(Пиксели*Кадры)                      : 0.245
Размер потока                            : 1,21 Гбайт (83%)
Библиотека кодирования                   : x264 core 138 r2358 9e941d1
Настройки программы                      : cabac=1 / ref=10 / deblock=1:-2:-1 / analyse=0x3:0x133 / me=umh / subme=11 / psy=1 / psy_rd=1.00:0.05 / mixed_ref=1 / me_range=32 / chroma_me=1 / trellis=2 / 8x8dct=1 / cqm=0 / deadzone=21,11 / fast_pskip=0 / chroma_qp_offset=-4 / threads=6 / lookahead_threads=1 / sliced_threads=0 / nr=0 / decimate=1 / interlaced=0 / bluray_compat=0 / constrained_intra=0 / bframes=8 / b_pyramid=2 / b_adapt=2 / b_bias=0 / direct=3 / weightb=1 / open_gop=0 / weightp=2 / keyint=250 / keyint_min=22 / scenecut=40 / intra_refresh=0 / rc_lookahead=0 / rc=2pass / mbtree=0 / bitrate=2542 / ratetol=1.0 / qcomp=0.70 / qpmin=0 / qpmax=69 / qpstep=4 / cplxblur=20.0 / qblur=0.5 / vbv_maxrate=50000 / vbv_bufsize=62500 / nal_hrd=none / ip_ratio=1.35 / pb_ratio=1.25 / aq=2:0.90
Язык                                     : English
Default                                  : Нет
Forced                                   : Нет

Аудио
Идентификатор                            : 2
Формат                                   : AC-3
Формат/Информация                        : Audio Coding 3
Расширение режима                        : CM (complete main)
Параметр Endianness формата              : Big
Идентификатор кодека                     : A_AC3
Продолжительность                        : 1 ч. 9 м.
Вид битрейта                             : Постоянный
Битрейт                                  : 448 Кбит/сек
Каналы                                   : 6 каналов
Расположение каналов                     : Front: L C R, Side: L R, LFE
Частота                                  : 48,0 КГц
Битовая глубина                          : 16 бит
Метод сжатия                             : С потерями
Размер потока                            : 224 Мбайт (15%)
Заголовок                                : Оригинал, AC3 5.1 @ 448 kbps
Язык                                     : Russian
Default                                  : Да
Forced                                   : Нет

Код:

---[Information] [17.01.2014 2:07:05] x264 [info]: frame I:1248  Avg QP:11.36  size: 85775  PSNR Mean Y:52.97 U:56.20 V:56.17 Avg:53.71 Global:53.11
---[Information] [17.01.2014 2:07:05] x264 [info]: frame P:26940 Avg QP:13.64  size: 22048  PSNR Mean Y:50.59 U:54.43 V:54.41 Avg:51.31 Global:50.50
---[Information] [17.01.2014 2:07:05] x264 [info]: frame B:76465 Avg QP:15.63  size:  8226  PSNR Mean Y:50.20 U:54.36 V:54.31 Avg:50.92 Global:49.99
---[Information] [17.01.2014 2:07:05] x264 [info]: consecutive B-frames:  3.3%  3.5% 18.6% 36.1% 15.2% 16.4%  3.9%  1.6%  1.4%
info [Профиль]  [ЛС] 

lampard960

Пол: Пол:Муж

Стаж: 4 года 11 месяцев

Сообщений: 619

Ангилья
Рейтинг

post 17-Янв-2014 10:47 (спустя 1 час 1 минута) [-]6[+]

[Цитировать] 

спасибо.

_________________
info [Профиль]  [ЛС] 

boldusev

Пол: Пол:Муж

Стаж: 7 лет 2 месяца

Сообщений: 114

Украина
Рейтинг

post 17-Янв-2014 11:06 (спустя 18 минут) [-]0[+]

[Цитировать] 

Эх, это уже не Алеша Поповичь(
info [Профиль]  [ЛС] 

Nevermand

Пол: Пол:Муж

Стаж: 4 года 3 месяца

Сообщений: 9

Россия
Рейтинг

post 17-Янв-2014 13:58 (спустя 2 часа 51 минута) [-]1[+]

[Цитировать] 

boldusev писал(а):

Эх, это уже не Алеша Поповичь(
нет это "Иван дурак" ;-)
info [Профиль]  [ЛС] 

warstalkerroma

Пол: Пол:Муж

Стаж: 4 года 1 месяц

Сообщений: 15

Россия
Рейтинг

post 17-Янв-2014 17:04 (спустя 3 часа) [-]3[+]

[Цитировать] 

Сумбурно и скучно!
info [Профиль]  [ЛС] 

Anton22

Пол: Пол:Муж

Стаж: 5 лет 4 месяца

Сообщений: 6

Россия
Рейтинг

post 18-Янв-2014 00:22 (спустя 7 часов) [-]5[+]

[Цитировать] 

Спасибо.
info [Профиль]  [ЛС] 

kollaider

Стаж: 6 лет 3 месяца

Сообщений: 121

Китай
Рейтинг

post 18-Янв-2014 10:58 (спустя 10 часов) [-]1[+]

[Цитировать] 

Мультфильм ни о чем, ни для детей, ни для взрослых, короче говоря, никому не подойдёт.

_________________
info [Профиль]  [ЛС] 

post 02-Апр-2014 14:03 (спустя 2 месяца 15 дней) [-]0[+]

Топик был перенесен из форума Rips в форум Отечественные полнометражные мультфильмы

BZzz
 
Показать сообщения:    
Ответить на тему

Текущее время: 07-Дек 01:51

Часовой пояс: GMT + 4



Вы не можете начинать темы
Вы не можете отвечать на сообщения
Вы не можете редактировать свои сообщения
Вы не можете удалять свои сообщения
Вы не можете голосовать в опросах
Вы не можете прикреплять файлы к сообщениям
Вы не можете скачивать файлы