Ошибка

Иван Царевич и Серый Волк 2 (Владимир Торопчин) [2013, мультфильм, приключения, семейный, фэнтези, BDRip]

Ответить на тему
 
Автор Сообщение

BZzz

Пол: Пол:Муж

Стаж: 5 лет 1 месяц

Сообщений: 3647

Россия
Рейтинг

post 16-Янв-2014 21:21 2[+]

[Цитировать] 

Иван Царевич и Серый Волк 2




Год выпуска: 2013
Страна: Россия
Жанр: мультфильм, приключения, семейный, фэнтези
Продолжительность: 01:12:37
Перевод: Оригинал [лицензия]

Режиссер: Владимир Торопчин

В ролях: Никита Ефремов, Татьяна Бунина, Иван Охлобыстин, Михаил Боярский, Ирина Рахманова, Александр Боярский

Описание: В Тридевятом царстве, где живут наши герои — тишь, да благодать. Иван женился на Василисе, и «жили они долго и счастливо», да не тут-то было. Иван целыми днями пропадает с Волком на службе — укрепляет рубежи и оборонную мощь, мечтает перевести стрелки часов на семь часов назад, чтобы меньше спать, и больше работать. А Василисе — скучно, как всем девушкам, ей хочется романтики, ну, такой, как в сказках. И тогда она решает организовать свое похищение… Однако, когда такое бывало, что в сказках все получалось так, как задумывалось?

Сборы в России: $18 198 160



Качество: BDRip
Формат: AVI
Видео кодек: XviD
Аудио кодек: AC3
Видео: 720x400 (16:9), 24.000 fps, XviD, 1 785 Kbps
Аудио #1: AC3, 448 Kbps, 48.0 KHz, 6 ch
Format : AVI
Format/Info : Audio Video Interleave
File size : 1.37 GiB
Duration : 1h 12mn
Overall bit rate : 2 695 Kbps
Writing application : VirtualDubMod 1.5.10.2 (build 2540/release)
Writing library : VirtualDubMod build 2540/release

Video
ID : 0
Format : MPEG-4 Visual
Format profile : Advanced Simple@L5
Format settings, BVOP : 2
Format settings, QPel : No
Format settings, GMC : No warppoints
Format settings, Matrix : Default (MPEG)
Codec ID : XVID
Codec ID/Hint : XviD
Duration : 1h 12mn
Bit rate : 1 785 Kbps
Width : 720 pixels
Height : 400 pixels
Display aspect ratio : 16:9
Frame rate : 24.000 fps
Color space : YUV
Chroma subsampling : 4:2:0
Bit depth : 8 bits
Scan type : Progressive
Compression mode : Lossy
Bits/(Pixel*Frame) : 0.258
Stream size : 927 MiB (66%)
Writing library : XviD 1.2.1 (UTC 2008-12-04)

Audio #1
ID : 1
Format : AC-3
Format/Info : Audio Coding 3
Mode extension : CM (complete main)
Format settings, Endianness : Big
Codec ID : 2000
Duration : 1h 12mn
Bit rate mode : Constant
Bit rate : 448 Kbps
Channel count : 6 channels
Channel positions : Front: L C R, Side: L R, LFE
Sampling rate : 48.0 KHz
Bit depth : 16 bits
Compression mode : Lossy
Stream size : 233 MiB (17%)
Alignment : Split accross interleaves
Interleave, duration : 42 ms (1.00 video frame)
Interleave, preload duration : 500 ms

Audio #2
ID : 2
Format : AC-3
Format/Info : Audio Coding 3
Mode extension : CM (complete main)
Format settings, Endianness : Big
Codec ID : 2000
Duration : 1h 12mn
Bit rate mode : Constant
Bit rate : 448 Kbps
Channel count : 6 channels
Channel positions : Front: L C R, Side: L R, LFE
Sampling rate : 48.0 KHz
Bit depth : 16 bits
Compression mode : Lossy
Stream size : 233 MiB (17%)
Alignment : Split accross interleaves
Interleave, duration : 42 ms (1.00 video frame)
Interleave, preload duration : 500 ms
info [Профиль]  [ЛС] 

11fe

Пол: Пол:Муж

Стаж: 2 года 11 месяцев

Сообщений: 9

Россия
Рейтинг

post 16-Янв-2014 21:34 (спустя 13 минут) [-]-6[+]

[Цитировать] 

Сборы в России: $18 198 160
уверен?
info [Профиль]  [ЛС] 

zombiekawaii

Стаж: 6 лет 11 месяцев

Сообщений: 222

Рейтинг

post 16-Янв-2014 22:02 (спустя 27 минут) [-]3[+]

[Цитировать] 

11fe, да. См. Кинопоиск.
info [Профиль]  [ЛС] 

aisberg2005

Пол: Пол:Муж

Стаж: 7 лет 7 месяцев

Сообщений: 34

Россия
Рейтинг

post 16-Янв-2014 23:30 (спустя 1 час 27 минут) [-]3[+]

[Цитировать] 

мда..студия мельница стала просто гавнище изрыгивать каждый год
info [Профиль]  [ЛС] 

dimidrol

Пол: Пол:Муж

Стаж: 7 лет 7 месяцев

Сообщений: 103

Россия
Рейтинг

post 16-Янв-2014 23:43 (спустя 13 минут) [-]0[+]

[Цитировать] 

Был на пре релизе так сказать, по мне так 1 часть была лучьше. Здесь же иногда было ощущение желания перемотать чуть дальше, но брату понравилось.

_________________
info [Профиль]  [ЛС] 

11fe

Пол: Пол:Муж

Стаж: 2 года 11 месяцев

Сообщений: 9

Россия
Рейтинг

post 16-Янв-2014 23:51 (спустя 7 минут) [-]0[+]

[Цитировать] 

что-то для меня такие сборы очень сомнительны
а бюджет тогда какой?
info [Профиль]  [ЛС] 

maxzer

Стаж: 7 лет 2 месяца

Сообщений: 1073

Рейтинг

post 17-Янв-2014 00:39 (спустя 48 минут) [-]2[+]

[Цитировать] 

Был в кино это бред сумасшедшего даже сюжета не было. Точнее он был из пальца
info [Профиль]  [ЛС] 

GoliathSpb

Стаж: 3 года 10 месяцев

Сообщений: 10

Рейтинг

post 22-Янв-2014 22:20 (спустя 5 дней) [-]0[+]

[Цитировать] 

Великолепную анимацию положили на бредовый сюжет. Лучше пересмотреть предыдущие части.
info [Профиль]  [ЛС] 

BZzz

Пол: Пол:Муж

Стаж: 5 лет 1 месяц

Сообщений: 3647

Россия
Рейтинг

post 04-Фев-2014 20:24 (спустя 12 дней) [-]0[+]

[Цитировать] 

...BDRip
info [Профиль]  [ЛС] 

MaliciouS

Пол: Пол:Муж

Стаж: 4 года 1 месяц

Сообщений: 23

Эстония
Рейтинг

post 04-Фев-2014 20:34 (спустя 10 минут) [-]0[+]

[Цитировать] 

клевая ава kolob_107
info [Профиль]  [ЛС] 

kaktus489

Стаж: 3 года 10 месяцев

Сообщений: 47

Норвегия
Рейтинг

post 08-Фев-2014 18:10 (спустя 3 дня) [-]0[+]

[Цитировать] 

Нормальный мульт, если денег не платить. Вполне смотрибельно.

_________________
Борьба с пиратством - это когда со злыми дядями, которые бесплатно качают музыку и фильмы, борются добрые дяди, которые бесплатно качают нефть и газ.
info [Профиль]  [ЛС] 

godamned

Пол: Пол:Муж

Стаж: 6 лет 9 месяцев

Сообщений: 8

Россия
Рейтинг

post 11-Мар-2014 09:21 (спустя 1 месяц 2 дня) [-]0[+]

[Цитировать] 

Сыну нравится и почему то именно этот мульт его зацепил!!
info [Профиль]  [ЛС] 

post 02-Апр-2014 14:03 (спустя 22 дня) [-]0[+]

Топик был перенесен из форума Rips в форум Отечественные полнометражные мультфильмы

BZzz
 
Показать сообщения:    
Ответить на тему

Текущее время: 03-Дек 23:47

Часовой пояс: GMT + 4



Вы не можете начинать темы
Вы не можете отвечать на сообщения
Вы не можете редактировать свои сообщения
Вы не можете удалять свои сообщения
Вы не можете голосовать в опросах
Вы не можете прикреплять файлы к сообщениям
Вы не можете скачивать файлы