Ошибка

Аладдин / Aladdin (Рон Клементс /Ron Clements, Джон Маскер /John Musker) [1992, мультфильм, мюзикл, фэнтези, мелодрама, комедия, приключения, семейный, BDRip 720p]

Ответить на тему
 
Автор Сообщение

Full_Focus

Пол: Пол:Муж

Стаж: 2 года 11 месяцев

Сообщений: 4

США
Рейтинг

post 09-Янв-2014 16:57 4[+]

[Цитировать] 

pic="http://s52.radikal.ru/i137/1401/39/d57e81cc3a37.jpg"
Аладдин / Aladdin

Страна: США
Жанр: мультфильм, мюзикл, фэнтези, мелодрама, комедия, приключения, семейный
Продолжительность: 1:30:39
Год выпуска: 1992
Перевод: Профессиональный (дублированный) + Двухголосый +x2 Одноголосых + Укр. дублированный

Режиссёр: Рон Клементс /Ron Clements/, Джон Маскер /John Musker/
Роли озвучивали: Скотт Венгер, Робин Уильямс, Линда Ларкин, Джонатан Фриман, Фрэнк Уэлкер, Гилберт Готтфрид, Дуглас Сил, Чарльз Адлер, Джек Эйнджел, Кори Бертон

Описание: В славном граде Аграба живет Аладдин, веселый воришка с золотым сердцем. Живет и не знает, что вскоре его ждет величайшее приключение в жизни. Ведь только с его помощью черный маг Джафар может овладеть невероятным сокровищем — лампой, в которой заключен исполняющий желания могущественный Джинн. И только хитроумие, смекалка и доброта Аладдина и его друзей — обезьянки Абу, принцессы Жасмин и самого Джинна способны помешать Джафару завладеть лампой и захватить власть над миром…

Качество: BDRip 720p *Рип от ThD* kolob_117
Формат: MKV
Видео: 1280 x 694 (1.844), x264, CRF , L4.1, 23.976 fps, ~5357 Kbps
Аудио: 48 kHz, DD 5.1 - 640 kbps |Дубляж BD CEE|
Аудио 2: 48 kHz, DD 5.1 - 448 kbps |Двухголосый, Гланц и Королева|
Аудио 3: 48 kHz, DD 5.1 - 384 kbps |Одноголосый, Михалев|
Аудио 4: 48 kHz, DD 2.0 - 192 kbps |Одноголосый, Марченко|
Аудио 5: 48 kHz, DD 2.0 - 320 kbps
Аудио 6: 48 kHz, DTS 5.1 - 1510 kbps |Оригинал|
Субтитры: Rus, Ukr, Eng.
 
Полное имя : Aladdin.1992.720p.BluRay.DTS.x264-ThD.mkv
Формат : Matroska
Версия формата : Version 2
Размер файла : 5,75 Гбайт
Продолжительность : 1 ч. 30 м.
Общий поток : 9075 Кбит/сек
Дата кодирования : UTC 2013-03-23 08:30:55
Программа кодирования : mkvmerge v5.7.0 ('The Whirlwind') built on Jul 29 2012 15:12:35
Библиотека кодирования : libebml v1.2.3 + libmatroska v1.3.0

Видео
Идентификатор : 1
Формат : AVC
Формат/Информация : Advanced Video Codec
Профиль формата : High@L4.1
Параметр CABAC формата : Да
Параметр ReFrames формата : 9 кадров
Идентификатор кодека : V_MPEG4/ISO/AVC
Продолжительность : 1 ч. 30 м.
Битрейт : 5401 Кбит/сек
Ширина : 1280 пикселей
Высота : 694 пикселя
Соотношение сторон : 1,85:1
Режим частоты кадров : Постоянный
Частота кадров : 23,976 кадра/сек
Цветовое пространство : YUV
Субдискретизация насыщенности : 4:2:0
Битовая глубина : 8 бит
Тип развёртки : Прогрессивная
Бит/(Пиксели*Кадры) : 0.254
Размер потока : 3,42 Гбайт (60%)
Библиотека кодирования : x264 core 128 r2216kMod 198a7ea
Настройки программы : cabac=1 / ref=9 / deblock=1:-3:-3 / analyse=0x3:0x133 / me=umh / subme=9 / psy=1 / fade_compensate=0.00 / psy_rd=1.10:0.00 / mixed_ref=1 / me_range=64 / chroma_me=1 / trellis=2 / 8x8dct=1 / cqm=0 / deadzone=21,11 / fast_pskip=0 / chroma_qp_offset=-2 / threads=12 / lookahead_threads=2 / sliced_threads=0 / nr=0 / decimate=0 / interlaced=0 / bluray_compat=0 / constrained_intra=0 / bframes=8 / b_pyramid=2 / b_adapt=2 / b_bias=0 / direct=3 / weightb=1 / open_gop=0 / weightp=2 / keyint=250 / keyint_min=23 / scenecut=40 / intra_refresh=0 / rc=crf / mbtree=0 / crf=16.0000 / qcomp=0.95 / qpmin=0 / qpmax=45 / qpstep=4 / ip_ratio=1.40 / pb_ratio=1.30 / aq=2:1.00
Язык : English
Default : Да
Forced : Нет

Аудио #1
Идентификатор : 2
Формат : AC-3
Формат/Информация : Audio Coding 3
Расширение режима : CM (complete main)
Параметр Endianness формата : Big
Идентификатор кодека : A_AC3
Продолжительность : 1 ч. 30 м.
Вид битрейта : Постоянный
Битрейт : 640 Кбит/сек
Каналы : 6 каналов
Расположение каналов : Front: L C R, Side: L R, LFE
Частота : 48,0 КГц
Битовая глубина : 16 бит
Метод сжатия : С потерями
Размер потока : 415 Мбайт (7%)
Заголовок : Dub
Язык : Russian
Default : Да
Forced : Да

Аудио #2
Идентификатор : 3
Формат : AC-3
Формат/Информация : Audio Coding 3
Расширение режима : CM (complete main)
Параметр Endianness формата : Big
Идентификатор кодека : A_AC3
Продолжительность : 1 ч. 30 м.
Вид битрейта : Постоянный
Битрейт : 448 Кбит/сек
Каналы : 6 каналов
Расположение каналов : Front: L C R, Side: L R, LFE
Частота : 48,0 КГц
Битовая глубина : 16 бит
Метод сжатия : С потерями
Задержка видео : 19 с.
Размер потока : 291 Мбайт (5%)
Заголовок : Двухголосый, Гланц и Королева
Язык : Russian
Default : Нет
Forced : Нет

Аудио #3
Идентификатор : 4
Формат : AC-3
Формат/Информация : Audio Coding 3
Расширение режима : CM (complete main)
Параметр Endianness формата : Big
Идентификатор кодека : A_AC3
Продолжительность : 1 ч. 30 м.
Вид битрейта : Постоянный
Битрейт : 384 Кбит/сек
Каналы : 6 каналов
Расположение каналов : Front: L C R, Side: L R, LFE
Частота : 48,0 КГц
Битовая глубина : 16 бит
Метод сжатия : С потерями
Размер потока : 249 Мбайт (4%)
Заголовок : Одноголосый, Михалев
Язык : Russian
Default : Нет
Forced : Нет

Аудио #4
Идентификатор : 5
Формат : AC-3
Формат/Информация : Audio Coding 3
Расширение режима : CM (complete main)
Параметр Endianness формата : Big
Идентификатор кодека : A_AC3
Продолжительность : 1 ч. 30 м.
Вид битрейта : Постоянный
Битрейт : 192 Кбит/сек
Каналы : 2 канала
Расположение каналов : Front: L R
Частота : 48,0 КГц
Битовая глубина : 16 бит
Метод сжатия : С потерями
Задержка видео : 19 с.
Размер потока : 125 Мбайт (2%)
Заголовок : Одноголосый, Марченко
Язык : Russian
Default : Нет
Forced : Нет

Аудио #5
Идентификатор : 6
Формат : AC-3
Формат/Информация : Audio Coding 3
Профиль формата : Dolby Digital
Расширение режима : CM (complete main)
Параметр Endianness формата : Big
Идентификатор кодека : A_AC3
Продолжительность : 1 ч. 30 м.
Вид битрейта : Постоянный
Битрейт : 320 Кбит/сек
Каналы : 2 канала
Расположение каналов : Front: L R
Частота : 48,0 КГц
Битовая глубина : 16 бит
Метод сжатия : С потерями
Размер потока : 208 Мбайт (4%)
Заголовок : Dub
Язык : Ukrainian
Default : Нет
Forced : Нет

Аудио #6
Идентификатор : 7
Формат : DTS
Формат/Информация : Digital Theater Systems
Режим : 16
Параметр Endianness формата : Big
Идентификатор кодека : A_DTS
Продолжительность : 1 ч. 30 м.
Вид битрейта : Постоянный
Битрейт : 1509 Кбит/сек
Каналы : 6 каналов
Расположение каналов : Front: L C R, Side: L R, LFE
Частота : 48,0 КГц
Битовая глубина : 24 бит
Метод сжатия : С потерями
Размер потока : 979 Мбайт (17%)
Язык : English
Default : Нет
Forced : Нет

Текст #1
Идентификатор : 8
Формат : UTF-8
Идентификатор кодека : S_TEXT/UTF8
Идентификатор кодека/Информация : UTF-8 Plain Text
Заголовок : Full
Язык : Russian
Default : Нет
Forced : Нет

Текст #2
Идентификатор : 9
Формат : UTF-8
Идентификатор кодека : S_TEXT/UTF8
Идентификатор кодека/Информация : UTF-8 Plain Text
Заголовок : Full
Язык : Ukrainian
Default : Нет
Forced : Нет

Текст #3
Идентификатор : 10
Формат : UTF-8
Идентификатор кодека : S_TEXT/UTF8
Идентификатор кодека/Информация : UTF-8 Plain Text
Язык : English
Default : Нет
Forced : Нет

Текст #4
Идентификатор : 11
Формат : UTF-8
Идентификатор кодека : S_TEXT/UTF8
Идентификатор кодека/Информация : UTF-8 Plain Text
Заголовок : Soundtrack subtitle
Язык : Russian
Default : Нет
Forced : Нет

Текст #5
Идентификатор : 12
Формат : UTF-8
Идентификатор кодека : S_TEXT/UTF8
Идентификатор кодека/Информация : UTF-8 Plain Text
Заголовок : Soundtrack subtitle
Язык : Ukrainian
Default : Нет
Forced : Нет

Текст #6
Идентификатор : 13
Формат : UTF-8
Идентификатор кодека : S_TEXT/UTF8
Идентификатор кодека/Информация : UTF-8 Plain Text
Заголовок : Soundtrack subtitle
Язык : English
Default : Нет
Forced : Нет

Меню
00:00:00.000 : en:"Arabian Nights"
00:03:06.060 : en:It Begins on a Dark Night
00:06:47.323 : en:Aladdin on the Run / "One Jump Ahead"
00:12:37.423 : en:Princess Jasmine
00:16:34.618 : en:Jasmine Runs Away
00:19:39.052 : en:Jafar Discovers His Diamond in the Rough
00:23:50.470 : en:Jasmine Confronts Jafar
00:27:39.324 : en:Aladdin at the Cave of Wonders
00:31:21.629 : en:A Narrow Escape
00:34:55.676 : en:Trapped!
00:37:20.363 : en:"A Friend Like Me"
00:41:13.387 : en:The Sultan Upbraids Jafar
00:43:32.860 : en:Aladdin Contemplates His Three Wishes
00:47:17.042 : en:Jafar's Solution to the Problem
00:48:39.958 : en:"Prince Ali"
00:55:20.025 : en:Prince Ali Appears on Jasmine's Balcony
00:57:37.745 : en:A Ride on the Magic Carpet / "a Whole New World"
01:03:04.906 : en:Aladdin Almost Drowns
01:07:24.915 : en:Aladdin's Dilemma
01:10:07.411 : en:A Royal Announcement
01:10:41.654 : en:The Genie's New Master
01:15:31.610 : en:Jafar in Power
01:18:57.983 : en:Jafar the Snake
01:21:41.438 : en:Back to Normal
01:25:43.555 : en:End Credits / "A Whole New World"
01:30:39.600 : en:01:30:39.600
info [Профиль]  [ЛС] 

L

Пол: Пол:Муж

Стаж: 6 лет 8 месяцев

Сообщений: 10835

Украина
Рейтинг

post 11-Янв-2014 23:53 (спустя 2 дня 6 часов) [-]0[+]

[Цитировать] 

Full_Focus
Тег поправьте

_________________
info [Профиль]  [ЛС] 

Full_Focus

Пол: Пол:Муж

Стаж: 2 года 11 месяцев

Сообщений: 4

США
Рейтинг

post 12-Янв-2014 02:06 (спустя 2 часа 12 минут) [-]0[+]

[Цитировать] 

L
Если я всё правильно понял, то поправил Улыбаюсь
info [Профиль]  [ЛС] 

post 12-Янв-2014 10:41 (спустя 8 часов) [-]0[+]

Топик был перенесен из форума Анонсы в форум Мультфильмы (HD Video)

L
 

redragon69

Пол: Пол:Муж

Стаж: 6 лет 8 месяцев

Сообщений: 2

Рейтинг

post 12-Янв-2014 10:59 (спустя 8 часов) [-]0[+]

[Цитировать] 

А 1080p будет?
info [Профиль]  [ЛС] 

obama1

Стаж: 7 лет 1 месяц

Сообщений: 587

Албания
Рейтинг

post 12-Янв-2014 12:25 (спустя 1 час 26 минут) [-]0[+]

[Цитировать] 

классный мульт смотрел его в детстве
info [Профиль]  [ЛС] 

GamerXL

Пол: Пол:Муж

Стаж: 4 года 1 месяц

Сообщений: 31

Белоруссия
Рейтинг

post 12-Янв-2014 12:36 (спустя 11 минут) [-]-1[+]

[Цитировать] 

народ может кто подскажет где можно качнуть в hd 2 и 3 часть Алладина?
info [Профиль]  [ЛС] 

Vinchi546

Пол: Пол:Муж

Стаж: 4 года 9 месяцев

Сообщений: 3

Россия
Рейтинг

post 12-Янв-2014 18:55 (спустя 6 часов) [-]0[+]

[Цитировать] 

блин,Гаврилова не хватает

_________________
info [Профиль]  [ЛС] 

feronas

Пол: Пол:Муж

Стаж: 5 лет 5 месяцев

Сообщений: 103

Россия
Рейтинг

post 12-Янв-2014 22:13 (спустя 3 часа) [-]3[+]

[Цитировать] 

Спасибо большое,мультик детства!Сейчас такие не рисуют уже....Все стало компьютерное,нет души!!
info [Профиль]  [ЛС] 

DENSHER

Пол: Пол:Муж

Стаж: 7 лет 3 месяца

Сообщений: 71

Россия
Рейтинг

post 13-Янв-2014 10:30 (спустя 12 часов) [-]0[+]

[Цитировать] 

Классно, еще бы вторую часть в 720р.
info [Профиль]  [ЛС] 

Full_Focus

Пол: Пол:Муж

Стаж: 2 года 11 месяцев

Сообщений: 4

США
Рейтинг

post 13-Янв-2014 19:05 (спустя 8 часов) [-]0[+]

[Цитировать] 

DENSHER
GamerXL
2 и 3-я часть не выходили на Blu-ray.
info [Профиль]  [ЛС] 

Conter15

Пол: Пол:Муж

Стаж: 5 лет

Сообщений: 35

Россия
Рейтинг

post 13-Янв-2014 20:07 (спустя 1 час 2 минуты) [-]0[+]

[Цитировать] 

дайте докачать пожалуйста, ну что за безобразие. сижу на скачивании уже 2й день
info [Профиль]  [ЛС] 

xrepairs

Пол: Пол:Муж

Стаж: 4 года 11 месяцев

Сообщений: 223

Предупреждений: 4

Россия
Рейтинг

post 05-Апр-2014 04:45 (спустя 2 месяца 22 дня) [-]0[+]

[Цитировать] 

Арабскаяяя нооооооооочь.

_________________
ASROCK SC, Core i7 3930K 5.2 GHZ, 2x 690GTX,16gb Corsair Dominator 2666 mhz.
info [Профиль]  [ЛС] 
Показать сообщения:    
Ответить на тему

Текущее время: 09-Дек 13:50

Часовой пояс: GMT + 4



Вы не можете начинать темы
Вы не можете отвечать на сообщения
Вы не можете редактировать свои сообщения
Вы не можете удалять свои сообщения
Вы не можете голосовать в опросах
Вы не можете прикреплять файлы к сообщениям
Вы не можете скачивать файлы