Ошибка

Облачно... 2: Месть ГМО / Cloudy with a Chance of Meatballs 2 (Коуди Камерон, Крис Пирн) [2013, мультфильм, фантастика, фэнтези, комедия, семейный, HDRip]

Ответить на тему
 
Автор Сообщение

BZzz

Пол: Пол:Муж

Стаж: 5 лет 1 месяц

Сообщений: 3647

Россия
Рейтинг

post 08-Янв-2014 01:20 3[+]

[Цитировать] 

Облачно... 2: Месть ГМО / Cloudy with a Chance of Meatballs 2
«Something big was leftover»




Год выпуска: 2013
Страна: США
Жанр: мультфильм, фантастика, фэнтези, комедия, семейный
Продолжительность: 01:34:49
Перевод: Профессиональный (дублированный)[лицензия]

Режиссер: Коуди Камерон, Крис Пирн

В ролях: Билл Хейдер (Bill Hader), Анна Фэрис (Anna Faris), Джеймс Каан (James Caan), Уилл Форте (Will Forte), Энди Сэмберг (Andy Samberg), Бенджамин Брэтт (Benjamin Bratt), Нил Патрик Харрис (Neil Patrick Harris), Терри Крюс (Terry Crews), Кристен Шол (Kristen Schaal), Коуди Камерон (Cody Cameron), Мелисса Штурм (Melissa Sturm), Крис Пирн (Kris Pearn), Крэйг Келлман (Craig Kellman)

Описание: Все жители острова Поплавок покинули родной дом после событий предыдущего мультфильма. Главный герой Флинт Локвуд теперь работает в компании The Live Corp на своего кумира Честера. Но ему придется оставить свой пост когда он узнает, что его печально-известная машина все ещё работает и производит на свет опасных гибридов. Флинту предстоит ещё раз спасти мир и не дать коварной машине распространить громадную еду по всему миру.

Бюджет: $78 000 000
Сборы в США: $117 652 032
Сборы в мире: + $130 300 000 = $247 952 032
Сборы в России: $11 737 665
Рейтинг MPAA:



Качество: HDRip
Формат: AVI
Видео кодек: XviD
Аудио кодек: AC3
Видео: 720x400 (16:9), 23.976 fps, XviD, 1 743 Kbps
Аудио #1: AC3, 448 Kbps, 48 KHz, 6 ch
Format : AVI
Format/Info : Audio Video Interleave
File size : 1.46 GiB
Duration : 1h 34mn
Overall bit rate : 2 199 Kbps
Writing application : VirtualDubMod 1.5.10.2 (build 2540/release)
Writing library : VirtualDubMod build 2540/release

Video
ID : 0
Format : MPEG-4 Visual
Format profile : Advanced Simple@L5
Format settings, BVOP : 2
Format settings, QPel : No
Format settings, GMC : No warppoints
Format settings, Matrix : Custom
Codec ID : XVID
Codec ID/Hint : XviD
Duration : 1h 34mn
Bit rate : 1 742 Kbps
Width : 720 pixels
Height : 304 pixels
Display aspect ratio : 2.35:1
Frame rate : 23.976 fps
Color space : YUV
Chroma subsampling : 4:2:0
Bit depth : 8 bits
Scan type : Progressive
Compression mode : Lossy
Bits/(Pixel*Frame) : 0.332
Stream size : 1.15 GiB (79%)
Writing library : XviD 1.2.1 (UTC 2008-12-04)

Audio
ID : 1
Format : AC-3
Format/Info : Audio Coding 3
Mode extension : CM (complete main)
Format settings, Endianness : Big
Codec ID : 2000
Duration : 1h 34mn
Bit rate mode : Constant
Bit rate : 448 Kbps
Channel count : 6 channels
Channel positions : Front: L C R, Side: L R, LFE
Sampling rate : 48.0 KHz
Bit depth : 16 bits
Compression mode : Lossy
Stream size : 304 MiB (20%)
Alignment : Split accross interleaves
Interleave, duration : 42 ms (1.00 video frame)
Interleave, preload duration : 500 ms
...
> Вместо Мистера Ти Эрла озвучил Терри Крюс. Мистеру Ти предлагали озвучить этого персонажа в сиквеле, но он отказался. Большинство движений и мимика этого персонажа были взяты с экранного образа Терри Крюса.
info [Профиль]  [ЛС] 

andrey7841

Пол: Пол:Муж

Стаж: 3 года 6 месяцев

Сообщений: 151

Россия
Рейтинг

post 08-Янв-2014 01:22 (спустя 1 минута) [-]0[+]

[Цитировать] 

Оперативненько)
info [Профиль]  [ЛС] 

Busujima

Пол: Пол:Муж

Стаж: 3 года 6 месяцев

Сообщений: 46

Россия
Рейтинг

post 08-Янв-2014 09:46 (спустя 8 часов) [-]0[+]

[Цитировать] 

Когда уже наконец-то будет нормальный звук кто-нибудь знает?

_________________
Когда я не какаю - я не ем, когда я не ем - я не какаю!
info [Профиль]  [ЛС] 

Shell

Пол: Пол:Муж

Стаж: 6 лет 5 месяцев

Сообщений: 322

Россия
Рейтинг

post 08-Янв-2014 10:56 (спустя 1 час 9 минут) [-]0[+]

[Цитировать] 

Busujima писал(а):

Когда уже наконец-то будет нормальный звук кто-нибудь знает?
В 8мых числах февраля

_________________
школота это состояние души, а не возраст (c) KasperGreen
info [Профиль]  [ЛС] 

boyboy

Стаж: 6 лет 2 месяца

Сообщений: 19

Россия
Рейтинг

post 08-Янв-2014 17:50 (спустя 6 часов) [-]-3[+]

[Цитировать] 

встаньте на раздачу пжлст kolob_161 kolob_161 kolob_161 kolob_161
info [Профиль]  [ЛС] 

Hugo86

Пол: Пол:Муж

Стаж: 3 года 8 месяцев

Сообщений: 2

Россия
Рейтинг

post 08-Янв-2014 19:47 (спустя 1 час 56 минут) [-]0[+]

[Цитировать] 

как мульт?
info [Профиль]  [ЛС] 

BZzz

Пол: Пол:Муж

Стаж: 5 лет 1 месяц

Сообщений: 3647

Россия
Рейтинг

post 15-Янв-2014 18:07 (спустя 6 дней) [-]0[+]

[Цитировать] 

...чистый звук
info [Профиль]  [ЛС] 

whoiam123

Стаж: 7 лет 8 месяцев

Сообщений: 40

Россия
Рейтинг

post 15-Янв-2014 19:20 (спустя 1 час 12 минут) [-]0[+]

[Цитировать] 

как лицензия?
info [Профиль]  [ЛС] 

BZzz

Пол: Пол:Муж

Стаж: 5 лет 1 месяц

Сообщений: 3647

Россия
Рейтинг

post 15-Янв-2014 19:26 (спустя 6 минут) [-]0[+]

[Цитировать] 

whoiam123 писал(а):

как лицензия?
да, озвучка таже)
info [Профиль]  [ЛС] 

urik05

Пол: Пол:Муж

Стаж: 3 года 11 месяцев

Сообщений: 129

Россия
Рейтинг

post 15-Янв-2014 20:10 (спустя 43 минуты) [-]-13[+]

[Цитировать] 

я уже качнул правда с другого трекера)
info [Профиль]  [ЛС] 

Busujima

Пол: Пол:Муж

Стаж: 3 года 6 месяцев

Сообщений: 46

Россия
Рейтинг

post 16-Янв-2014 08:22 (спустя 12 часов) [-]1[+]

[Цитировать] 

Спасибо большое.

_________________
Когда я не какаю - я не ем, когда я не ем - я не какаю!
info [Профиль]  [ЛС] 

Naimuh

Пол: Пол:Муж

Стаж: 6 лет 2 месяца

Сообщений: 57

Россия
Рейтинг

post 16-Янв-2014 08:50 (спустя 27 минут) [-]0[+]

[Цитировать] 

Огромное спасибо, сын давно просил, не получилось в кино сходить
info [Профиль]  [ЛС] 

BZzz

Пол: Пол:Муж

Стаж: 5 лет 1 месяц

Сообщений: 3647

Россия
Рейтинг

post 05-Фев-2014 14:20 (спустя 20 дней) [-]1[+]

[Цитировать] 

...лицензия
info [Профиль]  [ЛС] 

mindfucker

Пол: Пол:Муж

Стаж: 7 лет 8 месяцев

Сообщений: 84

Швеция
Рейтинг

post 05-Фев-2014 22:32 (спустя 8 часов) [-]0[+]

[Цитировать] 

медиплеер o!play hd3 asus выдал при просмотре "неподдерживаемый GMP" и по картинке рябь и пиксели идут. посмотреть не вышло. впервые за 3 года такую штуку вижу, а смотрю каждый день сериалы и фильмы
info [Профиль]  [ЛС] 

BZzz

Пол: Пол:Муж

Стаж: 5 лет 1 месяц

Сообщений: 3647

Россия
Рейтинг

post 05-Фев-2014 23:33 (спустя 1 час 1 минута) [-]0[+]

[Цитировать] 

mindfucker писал(а):

медиплеер o!play hd3 asus выдал при просмотре "неподдерживаемый GMP" и по картинке рябь и пиксели идут
перезалил, теперь должно быть всё нормально.
info [Профиль]  [ЛС] 

renkr

Пол: Пол:Муж

Стаж: 6 лет 3 месяца

Сообщений: 67

Россия
Рейтинг

post 06-Фев-2014 01:49 (спустя 2 часа 15 минут) [-]0[+]

[Цитировать] 

так а почему не указано что чистый звук?

кто-нибудь в кино ходил, там 3D хорошее? есть смысл ждать под очки?
info [Профиль]  [ЛС] 

BZzz

Пол: Пол:Муж

Стаж: 5 лет 1 месяц

Сообщений: 3647

Россия
Рейтинг

post 06-Фев-2014 02:15 (спустя 25 минут) [-]1[+]

[Цитировать] 

renkr писал(а):

так а почему не указано что чистый звук?
наверное потому, что звук с лицензии)
info [Профиль]  [ЛС] 

post 02-Апр-2014 14:04 (спустя 1 месяц 24 дня) [-]0[+]

Топик был перенесен из форума Rips в форум Зарубежные полнометражные мультфильмы

BZzz
 
Показать сообщения:    
Ответить на тему

Текущее время: 04-Дек 18:16

Часовой пояс: GMT + 4



Вы не можете начинать темы
Вы не можете отвечать на сообщения
Вы не можете редактировать свои сообщения
Вы не можете удалять свои сообщения
Вы не можете голосовать в опросах
Вы не можете прикреплять файлы к сообщениям
Вы не можете скачивать файлы