Ошибка

До окончания фрилича осталось:


Невероятные приключения кота / Oggy et les cafards (Оливер Жан-Мари) [2013, мультфильм, комедия, семейный, HDRip]

Ответить на тему
 
Автор Сообщение

koss555

Пол: Пол:Муж

Стаж: 4 года 11 месяцев

Сообщений: 1549

Россия
Рейтинг

post 15-Дек-2013 21:05 3[+]

[Цитировать] 

Невероятные приключения кота / Oggy et les cafards

Год выпуска: 2013
Страна: Франция
Жанр: мультфильм, комедия, семейный
Продолжительность: 01:25:27
Перевод: Не требуется

Режиссер: Оливер Жан-Мари
Сценарий: Оливье Жан Мари, Жан-Ив Рембо
Продюсер: Марк Ду Понтавиче

Описание: Добродушный кот Огги любит поесть, поспать и помечтать о высоком. Но его вечно одолевают несносные соседи, отравляя его жизнь злыми шутками и приколами. Кот гоняется за ними с неослабевающим азартом, придумывает всё новые и новые хитроумные уловки, но увы… Покой ему только снится.
Сборы в России: $127 870
Зрители: Франция 126.1 тыс. , Россия 24.3 тыс.
Премьера (мир): 7 августа 2013
Премьера (РФ): 26 сентября 2013 «Премиум Фильм»
Релиз на DVD: 23 января 2014 «CP Дистрибуция»



Качество: HDRip
Формат: AVI
Видео кодек: XviD
Аудио кодеk: AC3
Видео: 720x384 (1.875:1), 24.000 fps, XviD, 1 832 Kbps
Аудио: Аудио #1: AC3, 448 Kbps, 48.0 KHz, 6 ch
General
Complete name : Neverojatnye.prikljuchenija.kota.2013.HDRip.1400Mb.avi
Format : AVI
Format/Info : Audio Video Interleave
File size : 1.37 GiB
Duration : 1h 25mn
Overall bit rate : 2 290 Kbps
Writing application : VirtualDubMod 1.5.10.3 | www.virtualdub-fr.org || (build 2550/release)
Writing library : VirtualDubMod build 2550/release

Video
ID : 0
Format : MPEG-4 Visual
Format profile : Advanced Simple@L5
Format settings, BVOP : Yes
Format settings, QPel : No
Format settings, GMC : No warppoints
Format settings, Matrix : Custom
Codec ID : XVID
Codec ID/Hint : XviD
Duration : 1h 25mn
Bit rate : 1 832 Kbps
Width : 720 pixels
Height : 384 pixels
Display aspect ratio : 1.875
Frame rate : 24.000 fps
Color space : YUV
Chroma subsampling : 4:2:0
Bit depth : 8 bits
Scan type : Progressive
Bits/(Pixel*Frame) : 0.276
Stream size : 1.09 GiB (80%)
Writing library : XviD 1.2.1 (UTC 2008-12-04)

Audio
ID : 1
Format : AC-3
Format/Info : Audio Coding 3
Mode extension : CM (complete main)
Codec ID : 2000
Duration : 1h 25mn
Bit rate mode : Constant
Bit rate : 448 Kbps
Channel(s) : 6 channels
Channel positions : Front: L C R, Side: L R, LFE
Sampling rate : 48.0 KHz
Bit depth : 16 bits
Stream size : 274 MiB (20%)
Alignment : Split accross interleaves
Interleave, duration : 42 ms (1.00 video frame)
Interleave, preload duration : 500 ms
info [Профиль]  [ЛС] 

post 15-Дек-2013 21:05 (спустя 34 секунды) [-]0[+]

Топик был перенесен из форума Оформление раздач (Кинематограф) в форум Rips

koss555
 

monteki92

Пол: Пол:Муж

Стаж: 4 года 7 месяцев

Сообщений: 326

Предупреждений: 1

Рейтинг

post 16-Дек-2013 11:24 (спустя 14 часов) [-]6[+]

[Цитировать] 

всё теже Огги и Кукарача? или испоганились?

_________________
Если школьницам не продают бухло и сигареты,
Я беру свой паспорт и спешу на помощь этим детям.
Пейте, леди, пока не видят мама и папа,
И где же был Тесак, пока я их лапал?
info [Профиль]  [ЛС] 

bobck

Пол: Пол:Муж

Стаж: 7 лет 8 месяцев

Сообщений: 106

Украина
Рейтинг

post 16-Дек-2013 16:14 (спустя 4 часа) [-]0[+]

[Цитировать] 

monteki92
Всё теже!

_________________
На очі нижче капюшон, звук прикрути і знову на початок...
info [Профиль]  [ЛС] 

асгарот

Пол: Пол:Муж

Стаж: 6 лет 9 месяцев

Сообщений: 17

Гондурас
Рейтинг

post 16-Дек-2013 16:44 (спустя 30 минут) [-]0[+]

[Цитировать] 

Мультик бесподобен. По мне даже лучше чем был.Необычно (точней непривычно) время действия 200 млн. лет тому назад и средние века. Дальше ещё не смотрел . мульт стоящий . Однозначно в коллекцию.5+
info [Профиль]  [ЛС] 

Харон

Пол: Пол:Муж

Стаж: 5 лет

Сообщений: 122

Россия
Рейтинг

post 25-Дек-2013 17:15 (спустя 9 дней) [-]0[+]

[Цитировать] 

ограничение по возрасту есть у мульта?
info [Профиль]  [ЛС] 

Hammer80xx

Пол: Пол:Муж

Стаж: 4 года 9 месяцев

Сообщений: 46

Россия
Рейтинг

post 27-Дек-2013 17:18 (спустя 2 дня) [-]0[+]

[Цитировать] 

Обложка говорит что нет. Качаем.
info [Профиль]  [ЛС] 

post 11-Янв-2014 22:38 (спустя 15 дней) [-]0[+]

Топик был перенесен из форума Rips в форум Зарубежные полнометражные мультфильмы

L
 
Показать сообщения:    
Ответить на тему

Текущее время: 10-Дек 09:02

Часовой пояс: GMT + 4



Вы не можете начинать темы
Вы не можете отвечать на сообщения
Вы не можете редактировать свои сообщения
Вы не можете удалять свои сообщения
Вы не можете голосовать в опросах
Вы не можете прикреплять файлы к сообщениям
Вы не можете скачивать файлы