Ошибка

Приключения мышонка / Rodencia y el Diente de la Princesa (Давид Бисбано) [2013, мультфильм, семейный, HDRip]

Ответить на тему
 
Автор Сообщение

BZzz

Пол: Пол:Муж

Стаж: 5 лет 1 месяц

Сообщений: 3647

Россия
Рейтинг

post 14-Дек-2013 21:53 1[+]

[Цитировать] 

Приключения мышонка / Rodencia y el Diente de la Princesa


Год выпуска: 2013
Страна: Перу , Аргентина
Жанр: мультфильм, семейный
Продолжительность: 01:27:42
Перевод: Профессиональный (дублированный)[лицензия]

Режиссер: Давид Бисбано

В ролях: Эрнан Браво (Hernan Bravo), Наталия Росминати (Natalia Rosminati), Рикардо Эланис (Ricardo Alanis), Энрике Порсейана (Enrique Porcellana), Серджо Бермехо (Sergio Bermejo), Освальдо Салас (Oswaldo Salas), Гонсало Уртисбереа (Gonzalo Urtizberea), Марсело Чиринос (Marcelo Chirinos), Хосе Луис Пертикарини (Jose Luis Perticarini), Мария Елена Молина (Maria Elena Molina), Мара Кампанелли (Mara Campanelli), Педро Руис (Pedro Ruiz), Эриель Систернино (Ariel Cisternino), Сильвия Аира (Silvia Aira), Мора Фунбер (Mora Funber), Милагрос Эспонда Морено (Milagros Esponda Moreno), Джеронимо Пазос (Jeronimo Pazos), Сальвадор Пазос (Salvador Pazos), Валентина Компаньо (Valentina Campaño)

Описание: Давным-давно, в густых и широких лесах стояло прекрасное королевство Роденсия — место, где обитали удивительные создания и могущественные волшебники. Приключение, которое произойдёт здесь, расскажет нам о любви между неуклюжим учеником мага маленьким мышонком Эдамом и красивой и уверенной мышкой Бри, которым придётся преодолеть много опасных препятствий, для того чтобы получить силу зубной феи и победить отряд крыс под командованием злого Ротекса, который вторгся в мирное мышиное царство. В таинственной глубине леса магия света и тьмы, любви и обиды столкнутся, а Эдам и Ротекс будут сражаться, и только один выйдет победителем.

Сборы в России: $156 824



Качество: HDRip
Формат: AVI
Видео кодек: XviD
Аудио кодек: AC3
Видео: 720x320 (2.25:1), 23.976 fps, XviD, 1 770 Kbps
Аудио #1: AC3, 448 Kbps, 48.0 KHz, 6 ch
Format : AVI
Format/Info : Audio Video Interleave
File size : 1.36 GiB
Duration : 1h 27mn
Overall bit rate : 2 227 Kbps
Writing application : VirtualDubMod 1.5.10.3 | www.virtualdub-fr.org || (build 2550/release)
Writing library : VirtualDubMod build 2550/release

Video
ID : 0
Format : MPEG-4 Visual
Format profile : Advanced Simple@L5
Format settings, BVOP : 1
Format settings, QPel : No
Format settings, GMC : No warppoints
Format settings, Matrix : Default (H.263)
Codec ID : XVID
Codec ID/Hint : XviD
Duration : 1h 27mn
Bit rate : 1 770 Kbps
Width : 720 pixels
Height : 320 pixels
Display aspect ratio : 2.25:1
Frame rate : 23.976 fps
Color space : YUV
Chroma subsampling : 4:2:0
Bit depth : 8 bits
Scan type : Progressive
Compression mode : Lossy
Bits/(Pixel*Frame) : 0.320
Stream size : 1.08 GiB (79%)
Writing library : XviD 1.2.1 (UTC 2008-12-04)

Audio
ID : 1
Format : AC-3
Format/Info : Audio Coding 3
Mode extension : CM (complete main)
Format settings, Endianness : Big
Codec ID : 2000
Duration : 1h 27mn
Bit rate mode : Constant
Bit rate : 448 Kbps
Channel count : 6 channels
Channel positions : Front: L C R, Side: L R, LFE
Sampling rate : 48.0 KHz
Bit depth : 16 bits
Compression mode : Lossy
Stream size : 281 MiB (20%)
Alignment : Split accross interleaves
Interleave, duration : 42 ms (1.00 video frame)
Interleave, preload duration : 500 ms
info [Профиль]  [ЛС] 

lalalala

Пол: Пол:Муж

Стаж: 6 лет 9 месяцев

Сообщений: 725

Предупреждений: 2

Рейтинг

post 15-Дек-2013 00:04 (спустя 2 часа 11 минут) [-]1[+]

[Цитировать] 

Мыши рокеры с Марса? )
info [Профиль]  [ЛС] 

tindc77

Стаж: 6 лет

Сообщений: 1

Германия
Рейтинг

post 15-Дек-2013 02:06 (спустя 2 часа 1 минута) [-]7[+]

[Цитировать] 

lalalala писал(а):

Мыши рокеры с Марса? )
Больше похоже на мыши аватары из дурдома
info [Профиль]  [ЛС] 

durdom@net

Стаж: 7 лет 6 месяцев

Сообщений: 3

Украина
Рейтинг

post 15-Дек-2013 02:48 (спустя 42 минуты) [-]0[+]

[Цитировать] 

эт-точно они !!!
info [Профиль]  [ЛС] 

BAHO21

Стаж: 3 года 9 месяцев

Сообщений: 72

Рейтинг

post 15-Дек-2013 09:38 (спустя 6 часов) [-]0[+]

[Цитировать] 

22 оценки IMDb и 49 Кинопоиск
Подозрительно...
Хотя ребенку норм будет, так что забираю Улыбаюсь
info [Профиль]  [ЛС] 

lalalala

Пол: Пол:Муж

Стаж: 6 лет 9 месяцев

Сообщений: 725

Предупреждений: 2

Рейтинг

post 15-Дек-2013 11:00 (спустя 1 час 22 минуты) [-]0[+]

[Цитировать] 

tindc77 писал(а):

lalalala писал(а):

Мыши рокеры с Марса? )
Больше похоже на мыши аватары из дурдома
справа на скриншоте одного не хватает, зато дамы появились у них)
info [Профиль]  [ЛС] 

topsex

Пол: Пол:Муж

Стаж: 6 лет 8 месяцев

Сообщений: 415

СССР
Рейтинг

post 17-Дек-2013 13:24 (спустя 2 дня 2 часа) [-]0[+]

[Цитировать] 

lalalala писал(а):

tindc77 писал(а):

lalalala писал(а):

Мыши рокеры с Марса? )
Больше похоже на мыши аватары из дурдома
справа на скриншоте одного не хватает, зато дамы появились у них)
Там как раз 3 особи мужского пола, просто тот кто с картой в руках усох от любви к крайне правой грызунье (сам не смотрел, сделал вывод из постера и описания).

_________________
i5@4.0Ghz, 8Gb RAM, Radeon R9 280x 3Gb, SSD, W8.1 x64 \ Xbox 360
info [Профиль]  [ЛС] 

post 11-Янв-2014 22:38 (спустя 25 дней) [-]0[+]

Топик был перенесен из форума Rips в форум Зарубежные полнометражные мультфильмы

L
 
Показать сообщения:    
Ответить на тему

Текущее время: 09-Дек 17:39

Часовой пояс: GMT + 4



Вы не можете начинать темы
Вы не можете отвечать на сообщения
Вы не можете редактировать свои сообщения
Вы не можете удалять свои сообщения
Вы не можете голосовать в опросах
Вы не можете прикреплять файлы к сообщениям
Вы не можете скачивать файлы