Ошибка

До окончания фрилича осталось:


Индюки: Назад в будущее / Free Birds (Джимми Хейуорд) [2013, мультфильм, комедия, приключения, семейный HDRip]

Ответить на тему
 
Автор Сообщение

koss555

Пол: Пол:Муж

Стаж: 4 года 11 месяцев

Сообщений: 1549

Россия
Рейтинг

post 14-Дек-2013 17:52 0[+]

[Цитировать] 

Индюки: Назад в будущее / Free Birds
«Величайшее путешествие всех времён»

Год выпуска: 2013
Страна: США
Жанр: мультфильм, комедия, приключения, семейный слова
Продолжительность: 01:31:02
Перевод: Дублированный [лицензия]

Режиссер: Джимми Хейуорд
Сценарий: Джимми Хейуорд, Скотт Можер, Дэвид И. Штерн
Продюсер: Скотт Можер, Алонсо Рувалькаба, Дэвид И. Штерн
Композитор: Доминик Льюис
Художник: Марк Уайтинг, Кевин Р. Адамс
Монтаж: Крис Картагена

В ролях: Оуэн Уилсон / Owen Wilson (Reggie, озвучка), Вуди Харрельсон / Woody Harrelson (Jake, озвучка), Эми Полер / Amy Poehler (Jenny, озвучка), Джордж Такей / George Takei (S.T.E.V.E., озвучка), Колм Мини / Colm Meaney (Myles Standish, озвучка), Кит Дэвид / Keith David (Chief Broadbeak, озвучка), Дэн Фоглер / Dan Fogler (Governor Bradford, озвучка), Джимми Хейуорд / Jimmy Hayward (Ranger, Leatherbeak, President, Hazmats, Additional Voice Talent, озвучка)


Описание: Индюк Реджи вырос на обычной ферме, его жизнь была скучной и однообразной, как и у других птиц. Однако он отличался от сородичей тем, что умел пользоваться смекалкой и понимал, зачем его кормят. Поедание индейки на День Благодарения — знаменитая американская традиция, которая определяет смысл существования всех индюков на этой ферме. Однажды у Реджи появилась возможность кардинально изменить ситуацию: вместе с безумным приятелем Джейком они отправляются в необычное путешествие на машине времени. Основная задача — вернуться во времена, когда зарождалась традиция приготовления индейки на праздник, и изменить ход истории.

Бюджет: $55 000 000
Сборы в США: $53 881 033
Сборы в России: $6 001 242
Зрители: Россия 892.3 тыс. , Бразилия 810.1 тыс. , Мексика 187.4 тыс.
Премьера (мир): 21 октября 2013
Премьера (РФ): 31 октября 2013, «Парадиз» 3D
Релиз на DVD: 24 декабря 2013 «Парадиз / Активижен»
Релиз на Blu-Ray: 24 декабря 2013«Парадиз / Активижен»
Рейтинг MPAA: Рекомендуется присутствие родителей



Качество: HDRip
Формат: AVI
Видео кодек: XviD
Аудио кодеk: AC3
Видео: 720x384 (1.875:1), 23.976 fps, XviD, 1 839 Kbps
Аудио: Аудио #1: AC3, 448 Kbps, 48.0 KHz, 6 ch
General
Complete name : Induki.2013.D.HDRip.avi
Format : AVI
Format/Info : Audio Video Interleave
File size : 1.46 GiB
Duration : 1h 31mn
Overall bit rate : 2 296 Kbps
Writing application : VirtualDubMod 1.5.10.2 (build 2540/release)
Writing library : VirtualDubMod build 2540/release

Video
ID : 0
Format : MPEG-4 Visual
Format profile : Advanced Simple@L5
Format settings, BVOP : Yes
Format settings, QPel : No
Format settings, GMC : No warppoints
Format settings, Matrix : Custom
Codec ID : XVID
Codec ID/Hint : XviD
Duration : 1h 31mn
Bit rate : 1 839 Kbps
Width : 720 pixels
Height : 384 pixels
Display aspect ratio : 1.875
Frame rate : 23.976 fps
Color space : YUV
Chroma subsampling : 4:2:0
Bit depth : 8 bits
Scan type : Progressive
Bits/(Pixel*Frame) : 0.277
Stream size : 1.17 GiB (80%)
Writing library : XviD 1.2.1 (UTC 2008-12-04)

Audio
ID : 1
Format : AC-3
Format/Info : Audio Coding 3
Mode extension : CM (complete main)
Codec ID : 2000
Duration : 1h 31mn
Bit rate mode : Constant
Bit rate : 448 Kbps
Channel(s) : 6 channels
Channel positions : Front: L C R, Side: L R, LFE
Sampling rate : 48.0 KHz
Bit depth : 16 bits
Stream size : 292 MiB (20%)
Alignment : Split accross interleaves
Interleave, duration : 42 ms (1.00 video frame)
Interleave, preload duration : 500 ms
· Чтобы поближе познакомиться с особенностями психологии и физиологии главных героев, создатели проекта — художники, аниматоры и дизайнеры — посетили индюшачью ферму в Восточном Техасе.

· Для того, чтобы разработать пластику персонажей, специалисты отдела моделирования купили замороженную индейку в ближайшем супермаркете, реконструировали птицу, а потом провели ряд компьютерных тестов по движению.

· Чтобы как можно более точно передать движения перьевого покрова главных героев, команда разработала собственную программу под названием Avian (avian — англ. птичий).

info [Профиль]  [ЛС] 

post 14-Дек-2013 17:53 (спустя 31 секунда) [-]0[+]

Топик был перенесен из форума Оформление раздач (Кинематограф) в форум Rips

koss555
 

zeloch

Пол: Пол:Муж

Стаж: 7 лет

Сообщений: 35

Россия
Рейтинг

post 14-Дек-2013 23:12 (спустя 5 часов) [-]-3[+]

[Цитировать] 

Классный мульт)))
info [Профиль]  [ЛС] 

post 11-Янв-2014 22:38 (спустя 27 дней) [-]0[+]

Топик был перенесен из форума Rips в форум Зарубежные полнометражные мультфильмы

L
 
Показать сообщения:    
Ответить на тему

Текущее время: 10-Дек 10:53

Часовой пояс: GMT + 4



Вы не можете начинать темы
Вы не можете отвечать на сообщения
Вы не можете редактировать свои сообщения
Вы не можете удалять свои сообщения
Вы не можете голосовать в опросах
Вы не можете прикреплять файлы к сообщениям
Вы не можете скачивать файлы