Ошибка

Индюки: Назад в будущее / Free Birds (Джимми Хейуорд) [2013, мультфильм, комедия, приключения, семейный , DVDRip]

Ответить на тему
 
Автор Сообщение

koss555

Пол: Пол:Муж

Стаж: 4 года 11 месяцев

Сообщений: 1549

Россия
Рейтинг

post 03-Дек-2013 20:36 0[+]

[Цитировать] 

Индюки: Назад в будущее / Free Birds
«Величайшее путешествие всех времён»

Год выпуска: 2013
Страна: США
Жанр: мультфильм, комедия, приключения, семейный
Продолжительность: 01:27:18
Перевод:Дублированное [лицензия]

Режиссер: Джимми Хейуорд
Сценарий: Джимми Хейуорд, Скотт Можер, Дэвид И. Штерн
Продюсер: Скотт Можер, Алонсо Рувалькаба, Дэвид И. Штерн
Композитор: Доминик Льюис
Художник: Марк Уайтинг, Кевин Р. Адамс
Монтаж: Крис Картагена

В ролях: Оуэн Уилсон / Owen Wilson (Reggie, озвучка), Вуди Харрельсон / Woody Harrelson (Jake, озвучка), Эми Полер / Amy Poehler (Jenny, озвучка), Джордж Такей / George Takei (S.T.E.V.E., озвучка), Колм Мини / Colm Meaney (Myles Standish, озвучка), Кит Дэвид / Keith David (Chief Broadbeak, озвучка), Дэн Фоглер / Dan Fogler (Governor Bradford, озвучка), Джимми Хейуорд / Jimmy Hayward (Ranger, Leatherbeak, President, Hazmats, Additional Voice Talent, озвучка)


Описание: Индюк Реджи вырос на обычной ферме, его жизнь была скучной и однообразной, как и у других птиц. Однако он отличался от сородичей тем, что умел пользоваться смекалкой и понимал, зачем его кормят. Поедание индейки на День Благодарения — знаменитая американская традиция, которая определяет смысл существования всех индюков на этой ферме. Однажды у Реджи появилась возможность кардинально изменить ситуацию: вместе с безумным приятелем Джейком они отправляются в необычное путешествие на машине времени. Основная задача — вернуться во времена, когда зарождалась традиция приготовления индейки на праздник, и изменить ход истории.

Бюджет: $55 000 000
Сборы в США: $53 266 909
Сборы в России: $5 915 528
Зрители: Россия 880.4 тыс. , Бразилия 703.4 тыс. , Турция 67.7 тыс.
Премьера (мир): 26 сентября 2013
Премьера (РФ): 31 октября 2013, «Парадиз» 3D
Релиз на DVD: 24 декабря 2013 «Парадиз / Активижен»
Релиз на Blu-Ray: 24 декабря 2013 «Парадиз / Активижен»
Рейтинг MPAA: Рекомендуется присутствие родителей



Качество: DVDRip
Формат: AVI
Видео кодек: XviD
Аудио кодеk: AC3
Видео: 720x384 (1.875:1), 25.000 fps, XviD, 1 850 Kbps
Аудио: Аудио #1: AC3, 384 Kbps, 48.0 KHz, 6 ch
General
Complete name : Indjuki.Nazad.v.budushhee.2013.D.DVDRip.1400Mb.avi
Format : AVI
Format/Info : Audio Video Interleave
File size : 1.37 GiB
Duration : 1h 27mn
Overall bit rate : 2 244 Kbps
Writing application : VirtualDubMod 1.5.10.3 | www.virtualdub-fr.org || (build 2550/release)
Writing library : VirtualDubMod build 2550/release

Video
ID : 0
Format : MPEG-4 Visual
Format profile : Advanced Simple@L5
Format settings, BVOP : Yes
Format settings, QPel : No
Format settings, GMC : No warppoints
Format settings, Matrix : Custom
Codec ID : XVID
Codec ID/Hint : XviD
Duration : 1h 27mn
Bit rate : 1 850 Kbps
Width : 720 pixels
Height : 384 pixels
Display aspect ratio : 1.875
Frame rate : 25.000 fps
Color space : YUV
Chroma subsampling : 4:2:0
Bit depth : 8 bits
Scan type : Progressive
Bits/(Pixel*Frame) : 0.268
Stream size : 1.13 GiB (82%)
Writing library : XviD 1.2.1 (UTC 2008-12-04)

Audio
ID : 1
Format : AC-3
Format/Info : Audio Coding 3
Mode extension : CM (complete main)
Codec ID : 2000
Duration : 1h 27mn
Bit rate mode : Constant
Bit rate : 384 Kbps
Channel(s) : 6 channels
Channel positions : Front: L C R, Side: L R, LFE
Sampling rate : 48.0 KHz
Bit depth : 16 bits
Stream size : 240 MiB (17%)
Alignment : Split accross interleaves
Interleave, duration : 40 ms (1.00 video frame)
Interleave, preload duration : 500 ms
· Чтобы поближе познакомиться с особенностями психологии и физиологии главных героев, создатели проекта — художники, аниматоры и дизайнеры — посетили индюшачью ферму в Восточном Техасе.

· Для того, чтобы разработать пластику персонажей, специалисты отдела моделирования купили замороженную индейку в ближайшем супермаркете, реконструировали птицу, а потом провели ряд компьютерных тестов по движению.

· Чтобы как можно более точно передать движения перьевого покрова главных героев, команда разработала собственную программу под названием Avian (avian — англ. птичий).

info [Профиль]  [ЛС] 

post 03-Дек-2013 20:37 (спустя 42 секунды) [-]0[+]

Топик был перенесен из форума Оформление раздач (Кинематограф) в форум Rips

koss555
 

vongmoni

Пол: Пол:Муж

Стаж: 5 лет

Сообщений: 4

Россия
Рейтинг

post 04-Дек-2013 08:23 (спустя 11 часов) [-]2[+]

[Цитировать] 

Кураж-бамбей главных персонажей озвучивает, очень смешно!!!
info [Профиль]  [ЛС] 

post 11-Янв-2014 22:38 (спустя 1 месяц 7 дней) [-]0[+]

Топик был перенесен из форума Rips в форум Зарубежные полнометражные мультфильмы

L
 
Показать сообщения:    
Ответить на тему

Текущее время: 09-Дек 09:48

Часовой пояс: GMT + 4



Вы не можете начинать темы
Вы не можете отвечать на сообщения
Вы не можете редактировать свои сообщения
Вы не можете удалять свои сообщения
Вы не можете голосовать в опросах
Вы не можете прикреплять файлы к сообщениям
Вы не можете скачивать файлы