Ошибка

До окончания фрилича осталось:


Трое из Простоквашино / Сборник мультфильмов (Владимир Попов) [1977 г., мультфильмы, семейный, BDRip 1080p]

Ответить на тему
 
Автор Сообщение

notF0und

Пол: Пол:Муж

Стаж: 6 лет 11 месяцев

Сообщений: 560

Папуа — Новая Гвинея
Рейтинг

post 03-Дек-2013 14:53 1[+]

[Цитировать] 

Трое из Простоквашино / Сборник мультфильмов

Год выпуска: 1977-1984
Страна: СССР
Жанр: мультфильмы, семейный
Продолжительность: 01:25:15
Перевод: Не требуется
Режиссер:
  • Владимир Попов

Содержание сборника:
В ролях: Мария Виноградова, Олег Табаков, Лев Дуров, Борис Новиков, Герман Качин, Валентина Талызина, Зинаида Нарышкина
О фильме: Жил-был мальчик по прозвищу Дядя Федор. Он очень любил животных, но его родители и слышать ничего не хотели о том, чобы в их квартире завелся кто-то хвостатый и лохматый. И пришлось Дяде Федору со своими новыми приятелями — котом Матроскиным и верным песиком Шариком — отправиться в деревню Простоквашино.
Выпущено: СССР, "Союзмультфильм"
Продолжительность: 00:17:45
В ролях: Мария Виноградова, Олег Табаков, Лев Дуров, Борис Новиков, Герман Качин, Валентина Талызина, Зинаида Нарышкина
О фильме: Заболевший дядя Федор был увезен в первом мультфильме родителями в город, а заблудшая на участок корова стала давать огромное количество молока. Шарик и кот Матроскин вяло поругивались, но жили в целом мирно. А тем временем мама решила поехать на курорт, чтобы износить четыре вечерних платья, а на вокзале дядя Федор сбежал и укатил в Простоквашино к своим старым друзьям. Шарику прислали фоторужье, Корова родила теленка, которого Шарик учил служить. Много было веселых и славных событий, а под конец и мама приехала с папой. Если бы у нее была вторая жизнь, она бы ее провела в Простоквашино.
Выпущено: СССР, "Союзмультфильм"
Продолжительность: 00:17:56
В ролях: Мария Виноградова, Олег Табаков, Лев Дуров, Борис Новиков, Герман Качин, Валентина Талызина, Зинаида Нарышкина
О фильме: Шарик купил себе на зиму вместо валенок кеды, Матроскин обозвал его балбесом, и друзья друг с другом не разговаривали. Дядя Федор тем временем ремонтировал с папой «запорожца», а маме все надоело. А на Новый год папа с Федором решили поехать в Простоквашино проведать Шарика с Матроскиным, которые уже начали раздел имущества… Там все и встретили Новый Год - даже мама на лыжах приехала!
Выпущено: СССР, "Союзмультфильм"
Продолжительность: 00:15:43
В ролях: Олег Табаков, Юрий Никулин
О фильме: Рано утром дедушка выгуливает своего домашнего любимца — пса Барбоса. Потом оставляет его одного дома, а сам уходит до вечера, оставив Барбоса «за хозяина». Псу скучно одному, и он приглашает в гости дворнягу Бобика. Перед гостем Барбос начинает строить из себя настоящего хозяина квартиры…
Выпущено: СССР, "Союзмультфильм"
Продолжительность: 00:08:34
В ролях: Лев Дуров, Михаил Кононов, Вячеслав Невинный, Вера Васильева, Борис Новиков, Евгений Леонов, Юрий Яковлев
О фильме: Комический детектив по мотивам повести Юрия Коваля о злоключениях наивного деревенского паренька Васи Куролесова, одураченного шайкой местных уголовников.
Выпущено: СССР, "Союзмультфильм"
Продолжительность: 00:25:05

Качество: BDRip 1080p
Формат: MKV
Видео: MPEG-4 AVC, 1424x1080, 25,000 fps, 6884 Kbps, 0.178 bit/pixel
Аудио: AC-3, 48 khz, 6 ch, 448 kbps

Код:

Format                                   : Matroska
Format version                           : Version 4 / Version 2
File size                                : 4.37 GiB
Duration                                 : 1h 25mn
Overall bit rate                         : 7 335 Kbps
Movie name                               : Трое из простоквашино + Сборник мультфильмов
Encoded date                             : UTC 2013-02-15 09:02:11
Writing application                      : mkvmerge v6.0.0 ('Coming Up For Air') built on Jan 20 2013 09:52:00
Writing library                          : libebml v1.3.0 + libmatroska v1.4.0

Video
ID                                       : 1
Format                                   : AVC
Format/Info                              : Advanced Video Codec
Format profile                           : High@L4.1
Format settings, CABAC                   : Yes
Format settings, ReFrames                : 4 frames
Codec ID                                 : V_MPEG4/ISO/AVC
Duration                                 : 1h 25mn
Bit rate                                 : 6 884 Kbps
Width                                    : 1 424 pixels
Height                                   : 1 080 pixels
Display aspect ratio                     : 4:3
Frame rate mode                          : Constant
Frame rate                               : 25.000 fps
Color space                              : YUV
Chroma subsampling                       : 4:2:0
Bit depth                                : 8 bits
Scan type                                : Progressive
Bits/(Pixel*Frame)                       : 0.179
Stream size                              : 4.01 GiB (92%)
Title                                    : Rip by Dimok
Writing library                          : x264 core 125 r2208 d9d2288
Encoding settings                        : cabac=1 / ref=4 / deblock=1:0:0 / analyse=0x3:0x133 / me=umh / subme=11 / psy=1 / psy_rd=1.00:0.50 / mixed_ref=1 / me_range=32 / chroma_me=1 / trellis=2 / 8x8dct=1 / cqm=0 / deadzone=21,11 / fast_pskip=0 / chroma_qp_offset=-2 / threads=6 / lookahead_threads=1 / sliced_threads=0 / slices=2 / nr=0 / decimate=0 / interlaced=0 / bluray_compat=0 / constrained_intra=0 / bframes=3 / b_pyramid=2 / b_adapt=2 / b_bias=0 / direct=3 / weightb=1 / open_gop=0 / weightp=2 / keyint=250 / keyint_min=25 / scenecut=40 / intra_refresh=0 / rc_lookahead=68 / rc=2pass / mbtree=1 / bitrate=6884 / ratetol=1.0 / qcomp=0.63 / qpmin=1 / qpmax=69 / qpstep=4 / cplxblur=20.0 / qblur=0.5 / ip_ratio=1.40 / aq=2:1.00
Language                                 : English
Default                                  : Yes
Forced                                   : No

Audio
ID                                       : 2
Format                                   : AC-3
Format/Info                              : Audio Coding 3
Mode extension                           : CM (complete main)
Format settings, Endianness              : Big
Codec ID                                 : A_AC3
Duration                                 : 1h 25mn
Bit rate mode                            : Constant
Bit rate                                 : 448 Kbps
Channel(s)                               : 6 channels
Channel positions                        : Front: L C R, Side: L R, LFE
Sampling rate                            : 48.0 KHz
Bit depth                                : 16 bits
Compression mode                         : Lossy
Stream size                              : 273 MiB (6%)
Language                                 : Russian
Default                                  : Yes
Forced                                   : No

Menu
00:00:00.000                             : :Трое из Простоквашино
00:17:45.210                             : :Каникулы в Простоквашино
00:35:44.540                             : :Зима в Простоквашино
00:51:29.330                             : :Бобик в гостях у Барбоса
01:00:09.340                             : :Приключения Васи Куролесова

info [Профиль]  [ЛС] 

demon13

Стаж: 3 года 9 месяцев

Сообщений: 27

Россия
Рейтинг

post 04-Дек-2013 08:18 (спустя 17 часов) [-]0[+]

[Цитировать] 

большое спасибо от меня и моих детей!!!!!
kolob_137 kolob_140 kolob_168 kolob_168
info [Профиль]  [ЛС] 

timson2001

Пол: Пол:Муж

Стаж: 4 года 6 месяцев

Сообщений: 38

Россия
Рейтинг

post 04-Дек-2013 12:01 (спустя 3 часа) [-]-2[+]

[Цитировать] 

А не позновато ли? ab

_________________
info [Профиль]  [ЛС] 

thunder65

Пол: Пол:Муж

Стаж: 7 лет 2 месяца

Сообщений: 120

Норвегия
Рейтинг

post 04-Дек-2013 12:21 (спустя 19 минут) [-]0[+]

[Цитировать] 

Один из лучших мультфильмов

_________________
info [Профиль]  [ЛС] 
Показать сообщения:    
Ответить на тему

Текущее время: 10-Дек 14:48

Часовой пояс: GMT + 4



Вы не можете начинать темы
Вы не можете отвечать на сообщения
Вы не можете редактировать свои сообщения
Вы не можете удалять свои сообщения
Вы не можете голосовать в опросах
Вы не можете прикреплять файлы к сообщениям
Вы не можете скачивать файлы