Ошибка

Как поймать перо Жар-Птицы (Георгий Гитис, Вячеслав Плотников) [2013 г., мультфильм, фэнтези, BDRip 720p]

Ответить на тему
 
Автор Сообщение

Хухр-Мухр

Пол: Пол:Муж

Стаж: 4 года 11 месяцев

Сообщений: 509

СССР
Рейтинг

post 30-Ноя-2013 09:09 0[+]

[Цитировать] 

Как поймать перо Жар-Птицы

Год выпуска: 2013
Страна: РФ
Жанр: мультфильм, фэнтези
Продолжительность: 01:08:45
Перевод: Не требуется

Режиссер:
  • Георгий Гитис, Вячеслав Плотников


В ролях:
  • Михаил Озеров, Дмитрий Дюжев, Юлия Савичева, Андрей Леонов, Нонна Гришаева, Алексей Колган, Михаил Хрусталев, Анатолий Петров, Юлия Галдун, Владимир Горбунов


Описание: Во исполнение воли царя Берендея, младший сын его Иван отправляется на поиски диковинной Жар-птицы. В поисках удачи Ивана Царевича сопровождает верный друг и помощник Серый Волк, который, обладает всевозможными навыками и всегда спешит на помощь простодушному Ивану. Героев ждут увлекательные и опасные приключения, козни коварных братьев Ивана и его судьбоносная встреча с Еленой Прекрасной. Юные зрители погрузятся в волшебный мир русской сказки, с её традициями и характерной эстетикой, причудливо перемежающейся с приметами современного жанрового кино. Ну, а родители оценят актуальный юмор и модную современную музыку, написанную специально для фильма популярными рок-музыкантами.


Качество: BDRip 720p
Формат: MKV
Видео кодек: MPEG4
Аудио кодек: DTS
Видео: MPEG-4 AVC, 4585 Кбит/с, 24 fps, 1280x720
Аудио: DTS, 6 ch, 1510 Кбит/с
http://5.firepic.org/5/images/2013-11/29/62d1zotw904q.png  http://5.firepic.org/5/images/2013-11/29/mxq6u8i5xucp.png  http://5.firepic.org/5/images/2013-11/29/ufoei5091ymk.png 
D:\скачивание\видео\Kak.poymat.pero.Jarptitsy.2013.O.BDRip.720p.mkv
General
Unique ID : 247191811202412218598711264410745238626 (0xB9F7693F2C77B51BA885C5DC13B0F462)
Complete name : D:\скачивание\видео\Kak.poymat.pero.Jarptitsy.2013.O.BDRip.720p.mkv
Format : Matroska
Format version : Version 2
File size : 2.98 GiB
Duration : 1h 8mn
Overall bit rate : 6 217 Kbps
Movie name : Reliase for HDCLUB
Encoded date : UTC 2013-11-29 18:28:24
Writing application : mkvmerge v5.8.0 ('No Sleep / Pillow') built on Sep 2 2012 15:37:04
Writing library : libebml v1.2.3 + libmatroska v1.3.0
Video #1
ID : 1
Format : AVC
Format/Info : Advanced Video Codec
Format profile : High@L4.1
Format settings, CABAC : Yes
Format settings, ReFrames : 9 frames
Codec ID : V_MPEG4/ISO/AVC
Duration : 1h 8mn
Bit rate : 4 583 Kbps
Width : 1 280 pixels
Height : 720 pixels
Display aspect ratio : 16:9
Frame rate : 24.000 fps
Color space : YUV
Chroma subsampling : 4:2:0
Bit depth : 8 bits
Scan type : Progressive
Bits/(Pixel*Frame) : 0.207
Stream size : 2.20 GiB (74%)
Title : Kak.poymat.pero.Jarptitsy.2013.O.720p.BluRay.HDCLUB
Writing library : x264 core 138 r2359+704+48 3f879a0 tMod [8-bit@all X86_64]
Encoding settings : cabac=1 / ref=9 / deblock=1:-3:-3 / analyse=0x3:0x133 / me=umh / subme=11 / psy=1 / fade_compensate=0.00 / psy_rd=1.00:0.00 / mixed_ref=1 / me_range=32 / chroma_me=1 / trellis=2 / 8x8dct=1 / cqm=0 / deadzone=21,11 / fast_pskip=0 / chroma_qp_offset=-2 / threads=12 / lookahead_threads=2 / sliced_threads=0 / nr=0 / decimate=1 / interlaced=0 / bluray_compat=0 / constrained_intra=0 / fgo=0 / bframes=9 / b_pyramid=2 / b_adapt=2 / b_bias=0 / direct=1 / weightb=1 / open_gop=0 / weightp=2 / keyint=240 / keyint_min=24 / scenecut=40 / intra_refresh=0 / rc_lookahead=60 / rc=crf / mbtree=0 / crf=12.9000 / qcomp=0.60 / qpmin=0:0:0 / qpmax=69:69:69 / qpstep=4 / vbv_maxrate=50000 / vbv_bufsize=62500 / crf_max=0.0 / nal_hrd=none / ip_ratio=1.30 / pb_ratio=1.20 / aq=2:0.80 / aq-sensitivity=10.00 / aq-factor=1.00:1.00:1.00 / aq2=0 / aq3=0
Language : Russian
Default : Yes
Forced : No
Color primaries : BT.709-5, BT.1361, IEC 61966-2-4, SMPTE RP177
Transfer characteristics : BT.709-5, BT.1361
Matrix coefficients : BT.709-5, BT.1361, IEC 61966-2-4 709, SMPTE RP177
Audio #2
ID : 2
Format : DTS
Format/Info : Digital Theater Systems
Codec ID : A_DTS
Duration : 1h 8mn
Bit rate mode : Constant
Bit rate : 1 510 Kbps
Channel(s) : 6 channels
Channel positions : Front: L C R, Side: L R, LFE
Sampling rate : 48.0 KHz
Bit depth : 24 bits
Compression mode : Lossy
Stream size : 742 MiB (24%)
Language : Russian
Default : Yes
Forced : No
info [Профиль]  [ЛС] 

Qwester72

Стаж: 6 лет 8 месяцев

Сообщений: 50

Россия
Рейтинг

post 01-Дек-2013 10:06 (спустя 1 день) [-]0[+]

[Цитировать] 

за релиз спасибо, качество достойное. kolob_125 а сам, мульт - халтура полная.
info [Профиль]  [ЛС] 

Хухр-Мухр

Пол: Пол:Муж

Стаж: 4 года 11 месяцев

Сообщений: 509

СССР
Рейтинг

post 01-Дек-2013 11:53 (спустя 1 час 46 минут) [-]1[+]

[Цитировать] 

Qwester72
только зарелизил. сам смотреть не буду

_________________
есть одна народная мудрость, которая гласит: «Дай человеку огонь, и целый день он будет греться, но подожги его, и ему будет тепло до самой кончины»
info [Профиль]  [ЛС] 

АЛЬТРУИСТ

Пол: Пол:Муж

Стаж: 4 года 6 месяцев

Сообщений: 5

Россия
Рейтинг

post 15-Дек-2013 18:51 (спустя 14 дней) [-]0[+]

[Цитировать] 

Страно, но телевиор не поддерживает звук-первый раз такое :-(
info [Профиль]  [ЛС] 

alexbalamyt

Пол: Пол:Жен

Стаж: 6 лет 8 месяцев

Сообщений: 35

Сомали
Рейтинг

post 25-Дек-2013 18:18 (спустя 9 дней) [-]0[+]

[Цитировать] 

АЛЬТРУИСТ писал(а):

Страно, но телевиор не поддерживает звук-первый раз такое :-(
Аудио: DTS, 6 ch, 1510 Кбит/с
info [Профиль]  [ЛС] 

Timoshenko

Пол: Пол:Муж

Стаж: 6 лет 9 месяцев

Сообщений: 1216

Предупреждений: 1

Рейтинг

post 25-Дек-2013 21:57 (спустя 3 часа) [-]0[+]

[Цитировать] 

А песенку то в трейлере поет Ума, если я не ошибаюсь. Так что не может быть полная халтура
info [Профиль]  [ЛС] 
Показать сообщения:    
Ответить на тему

Текущее время: 08-Дек 18:26

Часовой пояс: GMT + 4



Вы не можете начинать темы
Вы не можете отвечать на сообщения
Вы не можете редактировать свои сообщения
Вы не можете удалять свои сообщения
Вы не можете голосовать в опросах
Вы не можете прикреплять файлы к сообщениям
Вы не можете скачивать файлы