Ошибка

Южный Парк / South Park (Сезон 17, Серии 10 из 10) [2013 г., мультфильм, комедия, WEB-DLRip 720p]

Ответить на тему
 
Автор Сообщение

Basketballman

Пол: Пол:Муж

Стаж: 7 лет 1 месяц

Сообщений: 280

Россия
Рейтинг

post 27-Ноя-2013 16:45 7[+]

[Цитировать] 

Южный Парк / South Park

Год выпуска: 2013
Страна: США
Жанр: мультфильм, комедия
Продолжительность: 00:22:00
Перевод: профессиональный (двухголосый закадровый) [Кубик в Кубе]
Режиссер:
  • Трей Паркер, Эрик Сточ, Мэтт Стоун
Роли озвучивали:
  • Трей Паркер, Мэтт Стоун, Мона Маршалл, Айзек Хейз, Эйприл Стюарт, Элиза Шнайдер, Мэри Кэй Бергман, Эдриан Бирд, Дженнифер Хауэлл, Кайл Маккаллок

Описание: Второй по длительности анимационный сериал в истории американского телевидения после сериала «Симпсоны». Основу сюжета составляют приключения четырёх мальчиков и их друзей, живущих в маленьком городке Саус-Парк, штат Колорадо. Сериал высмеивает недостатки американской культуры и текущие мировые события, а также подвергает критике множество глубоких убеждений и табу посредством пародии и чёрного юмора. «Южный парк» выходит поздно вечером и позиционируется как мультфильм для взрослых


Качество: WEB-DLRip 720p
Формат: FLV
Видео кодек: MPEG-4
Аудио кодек: AAC
Видео: 1280x720, 23.976 fps, 1911 Kbps
Аудио: 1) Russian: AAC, 2 ch, 96 Kbps

Sample
01 Let go,let gov "Ступай, правительство присмотрит за тобой"
02 Informative Murder Porn "Информативное убийственное порно"
03 World War Zimmerman "Война Миров Зиммерман"
04 Goth Kids 3: Dawn of the Posers "Дети Готы 3: Рассвет позеров"
05 Taming Strange "Приручая киску"
06 Ginger Cow "Рыжая корова"
07 Black Friday "Черная пятница"
08 A Song of Ass and Fire "Песнь зада и пламени"
09 Titties and Dragons "Сиськи и драконы"
10 The Hobbit "Хоббит"
General
Complete name : D:\Кино\South Park (Season 17)\01 Let Go, Let Gov.flv
Format : MPEG-4
Format profile : Base Media
Codec ID : isom
File size : 335 MiB
Duration : 22mn 10s
Overall bit rate mode : Variable
Overall bit rate : 2 111 Kbps
Encoded date : UTC 2013-09-30 09:25:59
Tagged date : UTC 2013-09-30 09:25:59

Video
ID : 1
Format : AVC
Format/Info : Advanced Video Codec
Format profile : High@L3.1
Format settings, CABAC : Yes
Format settings, ReFrames : 4 frames
Codec ID : avc1
Codec ID/Info : Advanced Video Coding
Duration : 22mn 10s
Bit rate : 1 911 Kbps
Maximum bit rate : 14.3 Mbps
Width : 1 280 pixels
Height : 718 pixels
Display aspect ratio : 16:9
Frame rate mode : Constant
Frame rate : 23.976 fps
Color space : YUV
Chroma subsampling : 4:2:0
Bit depth : 8 bits
Scan type : Progressive
Bits/(Pixel*Frame) : 0.087
Stream size : 303 MiB (91%)
Encoded date : UTC 2013-09-30 09:25:59
Tagged date : UTC 2013-09-30 09:29:49

Audio
ID : 3
Format : AAC
Format/Info : Advanced Audio Codec
Format profile : LC
Codec ID : 40
Duration : 22mn 10s
Bit rate mode : Variable
Bit rate : 96.0 Kbps
Maximum bit rate : 106 Kbps
Channel count : 2 channels
Channel positions : Front: L R
Sampling rate : 48.0 KHz
Compression mode : Lossy
Stream size : 15.5 MiB (5%)
Encoded date : UTC 2013-09-30 09:29:49
Tagged date : UTC 2013-09-30 09:29:49
info [Профиль]  [ЛС] 

Jok20

Пол: Пол:Муж

Стаж: 5 лет 5 месяцев

Сообщений: 3

Россия
Рейтинг

post 28-Ноя-2013 15:19 (спустя 22 часа) [-]-14[+]

[Цитировать] 

Унылый сезон kolob_113
info [Профиль]  [ЛС] 

Basketballman

Пол: Пол:Муж

Стаж: 7 лет 1 месяц

Сообщений: 280

Россия
Рейтинг

post 28-Ноя-2013 16:12 (спустя 52 минуты) [-]2[+]

[Цитировать] 

Jok20 писал(а):

Унылый сезон kolob_113
Не знаю, по-моему на уровне Улыбаюсь Особенно последние две серии Улыбаюсь

_________________
info [Профиль]  [ЛС] 

mishanay3000

Пол: Пол:Муж

Стаж: 3 года 11 месяцев

Сообщений: 42

Россия
Рейтинг

post 28-Ноя-2013 17:57 (спустя 1 час 45 минут) [-]0[+]

[Цитировать] 

Сегодня же должны были показать новую, девятую серию?
info [Профиль]  [ЛС] 

kokoss

Пол: Пол:Муж

Стаж: 7 лет 1 месяц

Сообщений: 242

Россия
Рейтинг

post 28-Ноя-2013 22:30 (спустя 4 часа) [-]0[+]

[Цитировать] 

на 5 перенесли
info [Профиль]  [ЛС] 

brandon

Стаж: 6 лет 10 месяцев

Сообщений: 78

Рейтинг

post 28-Ноя-2013 22:58 (спустя 28 минут) [-]-7[+]

[Цитировать] 

PS4 РУЛИТ!)))

_________________
Я не доверяю верблюдам и вообще всем, кто может не пить неделю.
info [Профиль]  [ЛС] 

Basketballman

Пол: Пол:Муж

Стаж: 7 лет 1 месяц

Сообщений: 280

Россия
Рейтинг

post 29-Ноя-2013 07:50 (спустя 8 часов) [-]-3[+]

[Цитировать] 

brandon писал(а):

PS4 РУЛИТ!)))
Да они примерно одинаковые по техническим характеристикам Улыбаюсь Каждому свое :-) А кому мало одной приставки, тот купит обе ;-)

_________________
info [Профиль]  [ЛС] 

Basketballman

Пол: Пол:Муж

Стаж: 7 лет 1 месяц

Сообщений: 280

Россия
Рейтинг

post 14-Дек-2013 07:21 (спустя 14 дней) [-]0[+]

[Цитировать] 

Раздача обновлена. Добавлена 9 серия (Titties and Dragons "Сиськи и драконы").

_________________
info [Профиль]  [ЛС] 

Revil

Пол: Пол:Муж

Стаж: 4 года 1 месяц

Сообщений: 353

Гваделупа
Рейтинг

post 14-Дек-2013 12:08 (спустя 4 часа) [-]-11[+]

[Цитировать] 

Dimussi18 писал(а):

brandon писал(а):

PS4 РУЛИТ!)))
Да они примерно одинаковые по техническим характеристикам Улыбаюсь Каждому свое :-) А кому мало одной приставки, тот купит обе ;-)
У одной есть кинект и куча эксклюзивов, а у другой нет... ну, собственно, в мультфильме это описано, но немножко завуалировано.
p.s. 10я уже вышла, зачетная серия.

_________________
info [Профиль]  [ЛС] 

Basketballman

Пол: Пол:Муж

Стаж: 7 лет 1 месяц

Сообщений: 280

Россия
Рейтинг

post 16-Дек-2013 12:58 (спустя 2 дня) [-]0[+]

[Цитировать] 

Раздача обновлена. Добавлена 10 серия (The Hobbit "Хоббит").

_________________
info [Профиль]  [ЛС] 

bvak

Пол: Пол:Муж

Стаж: 5 лет 4 месяца

Сообщений: 312

Украина
Рейтинг

post 17-Дек-2013 21:51 (спустя 1 день 8 часов) [-]3[+]

[Цитировать] 

Люблю когда смешные мультики несут в себе глубокий смысл.
info [Профиль]  [ЛС] 

sarco

Пол: Пол:Муж

Стаж: 6 лет 9 месяцев

Сообщений: 126

Предупреждений: 1

Рейтинг

post 15-Мар-2014 15:39 (спустя 2 месяца 28 дней) [-]0[+]

[Цитировать] 

Спасибо за хорошую раздачу!

_________________
PSN - NikolazMS13
XBL - Nikolaz MS13
info [Профиль]  [ЛС] 

valdemar 071

Пол: Пол:Муж

Стаж: 6 лет 7 месяцев

Сообщений: 22

Россия
Рейтинг

post 01-Сен-2014 16:46 (спустя 5 месяцев 17 дней) [-]0[+]

[Цитировать] 

Jok20 писал(а):

Унылый сезон kolob_113
кстати продолжение когда ?

_________________
привет
info [Профиль]  [ЛС] 

Okta3dr

Пол: Пол:Муж

Стаж: 4 года 10 месяцев

Сообщений: 209

Россия
Рейтинг

post 01-Сен-2014 17:47 (спустя 1 час) [-]0[+]

[Цитировать] 

valdemar 071
Пишут, что 24 сентября новый десятисерийный сезон начнётся.
info [Профиль]  [ЛС] 

borlot

Пол: Пол:Муж

Стаж: 6 лет 9 месяцев

Сообщений: 3

Ямайка
Рейтинг

post 04-Июл-2016 07:45 (спустя 1 год 10 месяцев) [-]0[+]

[Цитировать] 

Что за голос у Картмана?.... полный отстой. Выдержал 3 минуты....
info [Профиль]  [ЛС] 
Показать сообщения:    
Ответить на тему

Текущее время: 03-Дек 00:06

Часовой пояс: GMT + 4



Вы не можете начинать темы
Вы не можете отвечать на сообщения
Вы не можете редактировать свои сообщения
Вы не можете удалять свои сообщения
Вы не можете голосовать в опросах
Вы не можете прикреплять файлы к сообщениям
Вы не можете скачивать файлы