Ошибка

Спасти Санту / Saving Santa (Леон Джусен, Аарон Силман) [2013, мультфильм, мюзикл, комедия, семейный, HDRip]

Ответить на тему
 
Автор Сообщение

BZzz

Пол: Пол:Муж

Стаж: 5 лет 1 месяц

Сообщений: 3647

Россия
Рейтинг

post 26-Ноя-2013 13:41 0[+]

[Цитировать] 

Спасти Санту / Saving Santa
«На машине времени за Новым годом!»


Год выпуска: 2013
Страна: Великобритания
Жанр: мультфильм, мюзикл, комедия, семейный
Продолжительность: 01:23:48
Перевод: Профессиональный (дублированный)[цифровая лицензия iTunes]

Режиссер: Леон Джусен, Аарон Силман

В ролях: Мартин Фриман (Martin Freeman), Тим Карри (Tim Curry), Тим Конуэй (Tim Conway), Эшли Тисдейл (Ashley Tisdale), Ксавье Алькан (Xavier Alcan), Крис Барри (Chris Barrie), Ноэль Кларк (Noel Clarke), Джоан Коллинз (Joan Collins), Ребекка Фердинандо (Rebecca Ferdinando), Пэм Феррис (Pam Ferris), Крис Нью (Chris New), Ник Симунэк (Nick Simunek), Терри Стоун (Terry Stone), Алекс Уолкиншоу (Alex Walkinshaw)

Описание: Эльф Бернард — очень мил, весел, и… слегка несерьёзен. Но ему придется измениться, ведь у него впереди потрясающее и очень опасное приключение! Кто-то собирается похитить Санту и его волшебные сани, в которых можно перемещаться в разные эпохи. А без Санты Новый год никогда не наступит! Бернарду придётся переместиться во времени, сразиться со злодеем, остановить его армию, изменить прошлое, спасти Новый год и стать настоящим героем!



Качество: HDRip
Формат: AVI
Видео кодек: XviD
Аудио кодек: AC3
Видео: 720x384 (1.875:1), 23.976 fps, XviD, 1 942 Kbps
Аудио #1: AC3, 384 Kbps, 48.0 KHz, 6 ch
Format : AVI
Format/Info : Audio Video Interleave
File size : 1.37 GiB
Duration : 1h 23mn
Overall bit rate : 2 335 Kbps
Writing application : VirtualDubMod 1.5.10.2 (build 2540/release)
Writing library : VirtualDubMod build 2540/release

Video
ID : 0
Format : MPEG-4 Visual
Format profile : Advanced Simple@L5
Format settings, BVOP : 2
Format settings, QPel : No
Format settings, GMC : No warppoints
Format settings, Matrix : Custom
Codec ID : XVID
Codec ID/Hint : XviD
Duration : 1h 23mn
Bit rate : 1 942 Kbps
Width : 720 pixels
Height : 384 pixels
Display aspect ratio : 1.85:1
Frame rate : 23.976 fps
Color space : YUV
Chroma subsampling : 4:2:0
Bit depth : 8 bits
Scan type : Progressive
Compression mode : Lossy
Bits/(Pixel*Frame) : 0.293
Stream size : 1.14 GiB (83%)
Writing library : XviD 1.2.1 (UTC 2008-12-04)

Audio
ID : 1
Format : AC-3
Format/Info : Audio Coding 3
Mode extension : CM (complete main)
Format settings, Endianness : Big
Codec ID : 2000
Duration : 1h 23mn
Bit rate mode : Constant
Bit rate : 384 Kbps
Channel count : 6 channels
Channel positions : Front: L C R, Side: L R, LFE
Sampling rate : 48.0 KHz
Bit depth : 16 bits
Compression mode : Lossy
Stream size : 230 MiB (16%)
Alignment : Split accross interleaves
Interleave, duration : 42 ms (1.00 video frame)
Interleave, preload duration : 500 ms
info [Профиль]  [ЛС] 

Varravva

Пол: Пол:Муж

Стаж: 7 лет 4 месяца

Сообщений: 44

Грузия
Рейтинг

post 26-Ноя-2013 14:02 (спустя 21 минута) [-]0[+]

[Цитировать] 

Ходил на него с детьми в кино. Очень посредственно. Дети тоже не впечатлились.
info [Профиль]  [ЛС] 

BZzz

Пол: Пол:Муж

Стаж: 5 лет 1 месяц

Сообщений: 3647

Россия
Рейтинг

post 27-Ноя-2013 23:44 (спустя 1 день 9 часов) [-]0[+]

[Цитировать] 

...чистый звук
info [Профиль]  [ЛС] 

BZzz

Пол: Пол:Муж

Стаж: 5 лет 1 месяц

Сообщений: 3647

Россия
Рейтинг

post 13-Дек-2013 19:29 (спустя 15 дней) [-]0[+]

[Цитировать] 

...цифровая лицензия iTunes
info [Профиль]  [ЛС] 

post 11-Янв-2014 22:38 (спустя 29 дней) [-]0[+]

Топик был перенесен из форума Rips в форум Зарубежные полнометражные мультфильмы

L
 
Показать сообщения:    
Ответить на тему

Текущее время: 06-Дек 21:55

Часовой пояс: GMT + 4



Вы не можете начинать темы
Вы не можете отвечать на сообщения
Вы не можете редактировать свои сообщения
Вы не можете удалять свои сообщения
Вы не можете голосовать в опросах
Вы не можете прикреплять файлы к сообщениям
Вы не можете скачивать файлы