Ошибка

Джастин и рыцари доблести / Justin and the Knights of Valour (Мануэль Сисилия) [2013, мультфильм, приключения, DVDRip]

Ответить на тему
 
Автор Сообщение

BZzz

Пол: Пол:Муж

Стаж: 5 лет 1 месяц

Сообщений: 3647

Россия
Рейтинг

post 20-Ноя-2013 14:53 1[+]

[Цитировать] 

Джастин и рыцари доблести / Justin and the Knights of Valour


Год выпуска: 2013
Страна: Испания
Жанр: мультфильм, приключения
Продолжительность: 01:32:02
Перевод: Профессиональный (дублированный)[лицензия]

Режиссер: Мануэль Сисилия

В ролях: Фредди Хаймор (Freddie Highmore), Сирша Ронан (Saoirse Ronan), Марк Стронг (Mark Strong), Дэвид Уоллиамс (David Walliams), Антонио Бандерас (Antonio Banderas), Альфред Молина (Alfred Molina), Джули Уолтерс (Julie Walters), Оливия Уильямс (Olivia Williams), Чарльз Дэнс (Charles Dance), Руперт Эверетт (Rupert Everett), Джеймс Космо (James Cosmo), Майкл Калкин (Michael Culkin), Тэмсин Эгертон (Tamsin Egerton), Стивен Хьюз (Stephen Hughes), Бэрри Хамфриз (Barry Humphries), Ллойд Хатчинсон (Lloyd Hutchinson)

Описание: Действие мультфильма разворачивается в магическом мире, о котором мечтает каждый ребёнок. Джастин мечтает стать рыцарем, но на его пути появляется много препятствий бюрократического характера. Даже отец Джастина против рыцарства и хочет, чтобы сын стал придворным служащим. Тогда мальчик, обуреваемый желанием стать настоящим доблестным Рыцарем, сбегает из дома в поисках приключений. По дороге он знакомится с прекрасной девушкой — Талией, вдохновляющей его на новые подвиги, и встречает мудрых рыцарей-наставников, которые обучают его рыцарскому мастерству. Но хватит ли Джастину полученных знаний для того, чтобы справиться с угрозой, которая нависла над его Королевством? Сумеет ли мальчик преодолеть все препятствия и достичь своей мечты?

Бюджет: $28 000 000
Сборы в России: $3 300 627
Рейтинг MPAA:



Качество: DVDRip
Формат: AVI
Видео кодек: XviD
Аудио кодек: AC3
Видео: 720x304 (2.35:1), 25.000 fps, XviD, 1 685 Kbps
Аудио #1: AC3, 448 Kbps, 48.0 KHz, 6 ch
Format : AVI
Format/Info : Audio Video Interleave
File size : 1.38 GiB
Duration : 1h 32mn
Overall bit rate : 2 142 Kbps
Writing application : VirtualDubModRus 1.5.10.2 (build 2542/release)
Writing library : VirtualDubMod build 2542/release

Video
ID : 0
Format : MPEG-4 Visual
Format profile : Advanced Simple@L5
Format settings, BVOP : 1
Format settings, QPel : No
Format settings, GMC : No warppoints
Format settings, Matrix : Custom
Codec ID : XVID
Codec ID/Hint : XviD
Duration : 1h 32mn
Bit rate : 1 685 Kbps
Width : 720 pixels
Height : 304 pixels
Display aspect ratio : 2.35:1
Frame rate : 25.000 fps
Color space : YUV
Chroma subsampling : 4:2:0
Bit depth : 8 bits
Scan type : Progressive
Compression mode : Lossy
Bits/(Pixel*Frame) : 0.308
Stream size : 1.08 GiB (79%)
Writing library : XviD 1.2.1 (UTC 2008-12-04)

Audio
ID : 1
Format : AC-3
Format/Info : Audio Coding 3
Mode extension : CM (complete main)
Format settings, Endianness : Big
Codec ID : 2000
Duration : 1h 32mn
Bit rate mode : Constant
Bit rate : 448 Kbps
Channel count : 6 channels
Channel positions : Front: L C R, Side: L R, LFE
Sampling rate : 48.0 KHz
Bit depth : 16 bits
Compression mode : Lossy
Stream size : 295 MiB (21%)
Alignment : Split accross interleaves
Interleave, duration : 40 ms (1.00 video frame)
Interleave, preload duration : 500 ms
info [Профиль]  [ЛС] 

SerЁГ@

Стаж: 7 лет 3 месяца

Сообщений: 5

Рейтинг

post 21-Ноя-2013 18:42 (спустя 1 день 3 часа) [-]0[+]

[Цитировать] 

хрень)
info [Профиль]  [ЛС] 

Качан

Пол: Пол:Муж

Стаж: 4 года 6 месяцев

Сообщений: 23

СССР
Рейтинг

post 23-Ноя-2013 01:21 (спустя 1 день 6 часов) [-]0[+]

[Цитировать] 

SerЁГ@ писал(а):

хрень)
ок! смотреть не будем!
info [Профиль]  [ЛС] 

WertyGo

Пол: Пол:Муж

Стаж: 4 года 1 месяц

Сообщений: 18

Россия
Рейтинг

post 23-Ноя-2013 18:17 (спустя 16 часов) [-]0[+]

[Цитировать] 

Качан писал(а):

SerЁГ@ писал(а):

хрень)
ок! смотреть не будем!
Сарказм на высоте))))))
info [Профиль]  [ЛС] 

FieberF

Пол: Пол:Муж

Стаж: 7 лет 3 месяца

Сообщений: 17

Россия
Рейтинг

post 03-Дек-2013 19:40 (спустя 10 дней) [-]0[+]

[Цитировать] 

да,как-то чот ни о чём..

_________________
info [Профиль]  [ЛС] 

post 11-Янв-2014 22:38 (спустя 1 месяц 8 дней) [-]0[+]

Топик был перенесен из форума Rips в форум Зарубежные полнометражные мультфильмы

L
 
Показать сообщения:    
Ответить на тему

Текущее время: 03-Дек 10:54

Часовой пояс: GMT + 4



Вы не можете начинать темы
Вы не можете отвечать на сообщения
Вы не можете редактировать свои сообщения
Вы не можете удалять свои сообщения
Вы не можете голосовать в опросах
Вы не можете прикреплять файлы к сообщениям
Вы не можете скачивать файлы