Ошибка

Баскетбольный клуб! | Rou Kyuu Bu! SS | Ro-Kyu-Bu! SS [TV2][1-12 из 12][2013][комедия, спорт, этти][BDRip][720p][Любительский(JAP+SUB)]

Ответить на тему
 
Автор Сообщение

precentor frost

Пол: Пол:Муж

Стаж: 7 лет 8 месяцев

Сообщений: 669

Рейтинг

post 14-Ноя-2013 17:20 0[+]

[Цитировать] 



Баскетбольный клуб! || Rou Kyuu Bu! SS || Ro-Kyu-Bu! SS || ロウきゅーぶ!SS


Страна:
Год выпуска: 2013 [05.07.2013 ~ 27.09.2013]
Жанр: комедия, спорт, этти
Продолжительность: TV 12 эп. по 24 мин.

Перевод: озвучка || субтитры

Режиссёр: Янаги Синсукэ
Автор оригинала: Аояма Сагу
Студия:

Действие комедийной серии легких новелл сосредотачивается вокруг старшеклассника по имени Субару Хасегава, который становится тренером баскетбольной команды из пяти девочек из начальной школы.
Второй сезон называется "Ro-Kyu-Bu! SS", где "SS" имеет два значения: "Shougakusei wa Saikou daze!" (лучшие девочки начальной школы!) и "Second Season" (второй сезон).


© alex_asmodey


Информационные ссылки: AniDB || World Art || MAL

Качество: BDRip
Энкод: =^_^=
Тип видео: без хардсаба
Формат: mkv

Видео: x264 (Hi10p), 1280x720 (16:9), ~2000 Kbps, 23.976 fps
Аудио JAP: Vorbis, 48kHz, ~320 Kbps, 2ch

Аудио RUS #1: AC3, 48kHz, ~192 Kbps, 2ch || AniDUB (ext)
двухголосая (муж./жен.) от Tori & Estelle
Аудио RUS #2: AC3, 48kHz, ~192 Kbps, 2ch || SHiZA (ext)
двухголосая (жен./муж.) от LyaLya & Nyasheek ep.01-06
двухголосая (жен./муж.) от Aska & Nyasheek ep.07-09
двухголосая (жен./муж.) от Aska & Kano ep.10-12

Субтитры RUS #1: ASS, полные/вспомогательные || Dreamers Team (ext)
перевод: Empty, редактура: Muraki-san & Hariton Harko
Субтитры RUS #2: ASS, полные || (ext)
перевод: Otaku-Усолья


01. Innocent World!
02. Flying Kettou!
03. Paradigm Ginga
04. The Stupid Man
05. Overnight Sensation!
06. Aoi Wins?
07. Win, Again?
08. I Wish with You
09. Don`t Wanna Cry
10. Wanna Be a Gamemaker
11. Dearests
12. Because You’re Here, Tomoka

Код:

General
Unique ID                                : 230876274510683820257531595016716698632 (0xADB1272E790C698986CFEDA546A84408)
Complete name                            : .\[=^_^=] Rou Kyuu Bu! SS ep.01 [BD720 x264 Vorbis].mkv
Format                                   : Matroska
Format version                           : Version 4 / Version 2
File size                                : 412 MiB
Duration                                 : 23mn 42s
Overall bit rate mode                    : Variable
Overall bit rate                         : 2 430 Kbps
Encoded date                             : UTC 2013-11-12 12:54:26
Writing application                      : mkvmerge v6.5.0 ('Isn't she lovely') built on Oct 20 2013 12:50:05
Writing library                          : libebml v1.3.0 + libmatroska v1.4.1

Video
ID                                       : 1
Format                                   : AVC
Format/Info                              : Advanced Video Codec
Format profile                           : High 10@L5.0
Format settings, CABAC                   : Yes
Format settings, ReFrames                : 8 frames
Codec ID                                 : V_MPEG4/ISO/AVC
Duration                                 : 23mn 42s
Bit rate                                 : 2 062 Kbps
Width                                    : 1 280 pixels
Height                                   : 720 pixels
Display aspect ratio                     : 16:9
Frame rate mode                          : Constant
Frame rate                               : 23.976 fps
Color space                              : YUV
Chroma subsampling                       : 4:2:0
Bit depth                                : 10 bits
Scan type                                : Progressive
Bits/(Pixel*Frame)                       : 0.093
Stream size                              : 350 MiB (85%)
Title                                    : Rou Kyuu Bu! SS ep.01 «Innocent World!»
Writing library                          : x264 core 140 r2377 1ca7bb9
Encoding settings                        : cabac=1 / ref=8 / deblock=1:-3:-3 / analyse=0x3:0x113 / me=umh / subme=9 / psy=1 / psy_rd=0.90:0.00 / mixed_ref=1 / me_range=32 / chroma_me=1 / trellis=2 / 8x8dct=1 / cqm=0 / deadzone=21,11 / fast_pskip=0 / chroma_qp_offset=-2 / threads=9 / lookahead_threads=2 / sliced_threads=0 / nr=0 / decimate=0 / interlaced=0 / bluray_compat=0 / constrained_intra=0 / bframes=11 / b_pyramid=2 / b_adapt=2 / b_bias=0 / direct=1 / weightb=1 / open_gop=0 / weightp=2 / keyint=240 / keyint_min=24 / scenecut=40 / intra_refresh=0 / rc=crf / mbtree=0 / crf=16.0 / qcomp=0.70 / qpmin=0 / qpmax=81 / qpstep=4 / ip_ratio=1.40 / pb_ratio=1.30 / aq=1:0.80
Default                                  : Yes
Forced                                   : No
Color primaries                          : BT.709
Transfer characteristics                 : BT.709
Matrix coefficients                      : BT.709

Audio
ID                                       : 2
Format                                   : Vorbis
Format settings, Floor                   : 1
Codec ID                                 : A_VORBIS
Duration                                 : 23mn 42s
Bit rate mode                            : Variable
Bit rate                                 : 320 Kbps
Channel count                            : 2 channels
Sampling rate                            : 48.0 KHz
Compression mode                         : Lossy
Stream size                              : 54.2 MiB (13%)
Writing library                          : libVorbis (Schaufenugget) (20101101 (Schaufenugget))
Language                                 : Japanese
Default                                  : Yes
Forced                                   : No
info [Профиль]  [ЛС] 

ZashikiWarashi

Пол: Пол:Муж

Стаж: 4 года 1 месяц

Сообщений: 461

Предупреждений: 1

Россия
Рейтинг

post 14-Ноя-2013 18:32 (спустя 1 час 12 минут) [-]16[+]

[Цитировать] 

Опять лоли. Фрост тебе педогендо ава больше подходила :3
info [Профиль]  [ЛС] 

Алмаз

Пол: Пол:Муж

Стаж: 6 лет 4 месяца

Сообщений: 1836

Россия
Рейтинг

post 14-Ноя-2013 20:31 (спустя 1 час 58 минут) [-]22[+]

[Цитировать] 

Лолей много не бывает!

_________________
Паранойя - чрезвычайно утешительное состояние ума. Если вам кажется, что против вас что-то замышляют - значит вы что-то да стоите! (с) Гильбран Трус (Митчелл Сэнди - Игра предателя)
info [Профиль]  [ЛС] 

precentor frost

Пол: Пол:Муж

Стаж: 7 лет 8 месяцев

Сообщений: 669

Рейтинг

post 08-Мар-2014 15:48 (спустя 3 месяца 23 дня) [-]0[+]

[Цитировать] 

03. Paradigm Ginga
04. The Stupid Man
05. Overnight Sensation!
06. Aoi Wins?
07. Win, Again?
08. I Wish with You

_________________
Cилы добра, света и справедливости - это три совершенно разные фракции.
info [Профиль]  [ЛС] 

LuckyS

Пол: Пол:Муж

Стаж: 7 лет 3 месяца

Сообщений: 39

Литва
Рейтинг

post 08-Мар-2014 18:46 (спустя 2 часа 58 минут) [-]-13[+]

[Цитировать] 

Любите маленьких девочек в аниме? У меня для вас плохие новости...

_________________
info [Профиль]  [ЛС] 

Алмаз

Пол: Пол:Муж

Стаж: 6 лет 4 месяца

Сообщений: 1836

Россия
Рейтинг

post 08-Мар-2014 19:08 (спустя 22 минуты) [-]9[+]

[Цитировать] 

LuckyS
Не путайте "маленьких девочек в аниме" с "маленькими девочками в хентае". Хотя с нашим правительством от одного до другого не долго ждать придётся...

_________________
Паранойя - чрезвычайно утешительное состояние ума. Если вам кажется, что против вас что-то замышляют - значит вы что-то да стоите! (с) Гильбран Трус (Митчелл Сэнди - Игра предателя)
info [Профиль]  [ЛС] 

mailwl

Пол: Пол:Муж

Стаж: 7 лет 2 месяца

Сообщений: 300

Россия
Рейтинг

post 08-Мар-2014 20:27 (спустя 1 час 18 минут) [-]-10[+]

[Цитировать] 

любите лоли в аниме - езжайте на пмж в японию, всяко лучше, чем в колыму
где сид, почему не раздает?
info [Профиль]  [ЛС] 

precentor frost

Пол: Пол:Муж

Стаж: 7 лет 8 месяцев

Сообщений: 669

Рейтинг

post 11-Май-2014 12:00 (спустя 2 месяца 2 дня) [-]0[+]

[Цитировать] 

09. Don`t Wanna Cry
10. Wanna Be a Gamemaker
11. Dearests
12. Because You’re Here, Tomoka

_________________
Cилы добра, света и справедливости - это три совершенно разные фракции.
info [Профиль]  [ЛС] 

Vuratsudo

Пол: Пол:Муж

Стаж: 6 лет 1 месяц

Сообщений: 714

Украина
Рейтинг

post 11-Май-2014 15:41 (спустя 3 часа) [-]0[+]

[Цитировать] 

кто посмотрел, как оно ?
info [Профиль]  [ЛС] 

precentor frost

Пол: Пол:Муж

Стаж: 7 лет 8 месяцев

Сообщений: 669

Рейтинг

post 05-Авг-2015 00:40 (спустя 1 год 2 месяца) [-]0[+]

[Цитировать] 

полная озвучка от шизы

_________________
Cилы добра, света и справедливости - это три совершенно разные фракции.
info [Профиль]  [ЛС] 
Показать сообщения:    
Ответить на тему

Текущее время: 11-Дек 10:16

Часовой пояс: GMT + 4



Вы не можете начинать темы
Вы не можете отвечать на сообщения
Вы не можете редактировать свои сообщения
Вы не можете удалять свои сообщения
Вы не можете голосовать в опросах
Вы не можете прикреплять файлы к сообщениям
Вы не можете скачивать файлы