Ошибка

Детское время / Kodomo no Jikan: Kodomo no Natsu Jikan / A Child's Time: A Child's Summer Time [OVA] [1 из 1] [2011] [комедия, романтика, драма, этти] [DVDRip] [Любительский(JAP+SUB)]

Ответить на тему
 
Автор Сообщение

Алмаз

Пол: Пол:Муж

Стаж: 6 лет 4 месяца

Сообщений: 1836

Россия
Рейтинг

post 01-Ноя-2013 22:58 0[+]

[Цитировать] 

Детское время
Kodomo no Jikan: Kodomo no Natsu Jikan
A Child's Time: A Child's Summer Time
こどものじかん ~こどものなつじかん~

Год выпуска: 2011
Жанр: комедия, романтика, драма, этти
Тип: OVA
Продолжительность: 1 эп. (23 мин.)
Режиссер: Суганума Эйдзи
Автор оригинала: Ватасия Каору
Студия:
Diomedea
Информационные ссылки: AniDB || MyAnimeList || World Art
Описание:
Дайсукэ Аоки 23 года, он только что получил диплом учителя младших классов и поступил на должность в свою первую школу. Аоки-сенсэй молод, чист душой и телом, и полон симпатии к детям. При этом он НЕ педофил!..
...но кто бы мог подумать, что это обстоятельство затруднит Аоки-сану профессиональную адаптацию? На первом же уроке прелестная младшеклассница Рин Коконоэ осведомляется, есть ли у сенсэя девушка. Услышав отрицательный ответ, она сообщает, что намерена занять вакантную должность...
© Анастасия Розанова, World Art

Качество: DVDRip
Тип видео: без хардсаба
Энкод: Yousei-raws
Формат: MKV
Наличие линковки: нет

Дорожки и внешние подключаемые файлы:
  • Видео: x264, 8 bit, 1024x576, 23.976 кадр/сек, ~2100 кбит/сек
  • Аудио #1: Rus, AC3, 2 ch, 192 кбит/сек, 48 кГц - внешним файлом

    Озвучка: Honya & Kasumi & Henesy (женская/женская/мужская, трехголосая)

  • Аудио #2: Jap, AC3, 2 ch, 448 кбит/сек, 48 кГц - в составе контейнера
  • Субтитры: Rus, ASS - внешним файлом

    Перевод: Pelikan



General
Unique ID : 215150061889871950053064551674514699797 (0xA1DC65094AF6183FB22933FF698EF615)
Complete name : F:\***\Kodomo no Jikan OVA-2 [QC]\[Yousei-raws] Kodomo no Jikan ~Kodomo no Natsu Jikan~ [DVDrip 1024x576 x264 AC3].mkv
Format : Matroska
Format version : Version 2
File size : 425 MiB
Duration : 23mn 21s
Overall bit rate : 2 542 Kbps
Movie name : こどものじかん 「こどものなつじかん」
Encoded date : UTC 2011-02-14 03:33:13
Writing application : mkvmerge v4.5.0 ('Speed of Light') сборка от Feb 1 2011 02:10:32
Writing library : libebml v1.2.0 + libmatroska v1.1.0

Video
ID : 1
Format : AVC
Format/Info : Advanced Video Codec
Format profile : High@L4.0
Format settings, CABAC : Yes
Format settings, ReFrames : 12 frames
Muxing mode : Header stripping
Codec ID : V_MPEG4/ISO/AVC
Duration : 23mn 21s
Bit rate : 2 140 Kbps
Width : 1 024 pixels
Height : 576 pixels
Display aspect ratio : 16:9
Frame rate mode : Constant
Frame rate : 23.976 fps
Color space : YUV
Chroma subsampling : 4:2:0
Bit depth : 8 bits
Scan type : Progressive
Bits/(Pixel*Frame) : 0.151
Stream size : 341 MiB (80%)
Title : DVDrip by Kirill
Writing library : x264 core 114 r1900 60ef1f8
Encoding settings : cabac=1 / ref=12 / deblock=1:-2:-2 / analyse=0x3:0x133 / me=umh / subme=9 / psy=1 / psy_rd=0.90:0.00 / mixed_ref=1 / me_range=24 / chroma_me=1 / trellis=2 / 8x8dct=1 / cqm=0 / deadzone=21,11 / fast_pskip=1 / chroma_qp_offset=-2 / threads=12 / sliced_threads=0 / nr=0 / decimate=0 / interlaced=0 / constrained_intra=0 / bframes=12 / b_pyramid=2 / b_adapt=2 / b_bias=0 / direct=3 / weightb=1 / open_gop=0 / weightp=2 / keyint=250 / keyint_min=23 / scenecut=40 / intra_refresh=0 / rc=2pass / mbtree=0 / bitrate=2140 / ratetol=60.0 / qcomp=0.75 / qpmin=8 / qpmax=24 / qpstep=4 / cplxblur=20.0 / qblur=0.5 / ip_ratio=1.40 / pb_ratio=1.30 / aq=1:0.90
Language : Japanese
Default : Yes
Forced : No
Matrix coefficients : BT.601

Audio
ID : 2
Format : AC-3
Format/Info : Audio Coding 3
Mode extension : CM (complete main)
Format settings, Endianness : Big
Muxing mode : Header stripping
Codec ID : A_AC3
Duration : 23mn 21s
Bit rate mode : Constant
Bit rate : 448 Kbps
Channel(s) : 2 channels
Channel positions : Front: L R
Sampling rate : 48.0 KHz
Bit depth : 16 bits
Compression mode : Lossy
Stream size : 74.8 MiB (18%)
Title : Original audio
Language : Japanese
Default : Yes
Forced : No

Menu
00:00:00.000 : ja:アバン
00:01:08.068 : ja:OP
00:02:38.075 : ja:Aパート
00:11:30.189 : ja:Bパート
00:21:14.607 : ja:ED

Доп. информация:
  • Чтобы смотреть с русской озвучкой, необходимо из папки "Sound [*ник_даббера*]" скопировать файлы в папку c видео. Далее, в зависимости от вашего плеера, воспользоваться этой инструкцией.
  • Чтобы смотреть с субтитрами, необходимо из папки "Subs [Pelikan]" скопировать файлы в папку с видео. Большинство плееров подгрузит их автоматически при открытии видео.

info [Профиль]  [ЛС] 
Показать сообщения:    
Ответить на тему

Текущее время: 05-Дек 18:34

Часовой пояс: GMT + 4



Вы не можете начинать темы
Вы не можете отвечать на сообщения
Вы не можете редактировать свои сообщения
Вы не можете удалять свои сообщения
Вы не можете голосовать в опросах
Вы не можете прикреплять файлы к сообщениям
Вы не можете скачивать файлы