Ошибка

Детское время: Второй семестр / Kodomo no Jikan: Ni Gakki / A Child's Time: Second Term [OVA+Special] [3+1 из 3+1] [2009] [комедия, романтика, драма, этти] [DVDRip] [Любительский(JAP+SUB)]

Ответить на тему
 
Автор Сообщение

Алмаз

Пол: Пол:Муж

Стаж: 6 лет 4 месяца

Сообщений: 1836

Россия
Рейтинг

post 01-Ноя-2013 22:58 0[+]

[Цитировать] 

Детское время
Kodomo no Jikan: Ni Gakki
A Child's Time: Second Term
こどものじかん 2学期

Год выпуска: 2009
Жанр: комедия, романтика, драма, этти
Тип: OVA + Special
Продолжительность: 4 эп. (23 мин.)
Режиссер: Суганума Эйдзи
Автор оригинала: Ватасия Каору
Студия:
Diomedea
Информационные ссылки: AniDB || MyAnimeList || World Art
Описание:
Дайсукэ Аоки 23 года, он только что получил диплом учителя младших классов и поступил на должность в свою первую школу. Аоки-сенсэй молод, чист душой и телом, и полон симпатии к детям. При этом он НЕ педофил!..
...но кто бы мог подумать, что это обстоятельство затруднит Аоки-сану профессиональную адаптацию? На первом же уроке прелестная младшеклассница Рин Коконоэ осведомляется, есть ли у сенсэя девушка. Услышав отрицательный ответ, она сообщает, что намерена занять вакантную должность...
© Анастасия Розанова, World Art

Качество: DVDRip
Тип видео: без хардсаба
Энкод: HQR
Формат: MKV
Наличие линковки: нет

Дорожки и внешние подключаемые файлы:
  • Видео: x264, 8 bit, 1024x576, 23.976 кадр/сек, ~1600 кбит/сек
  • Аудио #1: Rus, MP3, 2 ch, 192 кбит/сек, 48 кГц - внешними файлами

    Озвучка: Henesy & Oliva (мужская/женская, двухголосая)

  • Аудио #2: Rus, AC3, 2 ch, 192 кбит/сек, 48 кГц - внешними файлами

    Озвучка: Юки Нацуи (мужская, одноголосая) (только Special)

  • Аудио #3: Jap, AC3, 2 ch, 448 кбит/сек, 48 кГц - в составе контейнера
  • Субтитры: Rus, ASS - внешними файлами

    Перевод: Pelikan

01. Четвероклассники
02. «Весёлые старты»
03. Застывшие лепестки сакуры
SP. Куро-тян и Сиро-тян



General
Unique ID : 218418878091068446878846885185770558994 (0xA451F21E366312EC8B003099971D1612)
Complete name : I:\***\Kodomo no Jikan ~Ni Gakki~\[HQR] Kodomo no Jikan Ni Gakki OVA -1- [1024x576 h264 ac3].mkv
Format : Matroska
Format version : Version 2
File size : 341 MiB
Duration : 23mn 20s
Overall bit rate : 2 042 Kbps
Encoded date : UTC 2009-05-07 18:10:39
Writing application : mkvmerge v2.7.0 ('Do It Again') built on Apr 15 2009 00:27:10
Writing library : libebml v0.7.7 + libmatroska v0.8.1

Video
ID : 1
Format : AVC
Format/Info : Advanced Video Codec
Format profile : High@L4.2
Format settings, CABAC : Yes
Format settings, ReFrames : 4 frames
Codec ID : V_MPEG4/ISO/AVC
Duration : 23mn 20s
Bit rate : 1 600 Kbps
Width : 1 024 pixels
Height : 576 pixels
Display aspect ratio : 16:9
Frame rate mode : Constant
Frame rate : 23.976 fps
Color space : YUV
Chroma subsampling : 4:2:0
Bit depth : 8 bits
Scan type : Progressive
Bits/(Pixel*Frame) : 0.113
Stream size : 259 MiB (76%)
Title : 01. 4th Graders
Writing library : x264 core 67 r1145M d2e1e1c
Encoding settings : cabac=1 / ref=4 / deblock=1:0:0 / analyse=0x3:0x133 / me=umh / subme=9 / psy_rd=0.6:0.0 / mixed_ref=1 / me_range=32 / chroma_me=1 / trellis=2 / 8x8dct=1 / cqm=0 / deadzone=21,11 / chroma_qp_offset=-2 / threads=1 / nr=0 / decimate=0 / mbaff=0 / bframes=3 / b_pyramid=1 / b_adapt=2 / b_bias=1 / direct=3 / wpredb=1 / keyint=240 / keyint_min=24 / scenecut=40 / rc=2pass / bitrate=1600 / ratetol=60.0 / qcomp=0.90 / qpmin=16 / qpmax=51 / qpstep=4 / cplxblur=20.0 / qblur=0.5 / ip_ratio=1.40 / pb_ratio=1.40 / aq=0
Default : Yes
Forced : No

Audio
ID : 2
Format : AC-3
Format/Info : Audio Coding 3
Mode extension : CM (complete main)
Format settings, Endianness : Big
Codec ID : A_AC3
Duration : 23mn 20s
Bit rate mode : Constant
Bit rate : 448 Kbps
Channel(s) : 2 channels
Channel positions : Front: L R
Sampling rate : 48.0 KHz
Bit depth : 16 bits
Compression mode : Lossy
Stream size : 74.8 MiB (22%)
Title : Original [Untouched]
Language : Japanese
Default : Yes
Forced : No

Доп. информация:
  • Чтобы смотреть с русской озвучкой, необходимо из папки "Sound [*ник_даббера*]" скопировать файлы в папку c видео. Далее, в зависимости от вашего плеера, воспользоваться этой инструкцией.
  • Чтобы смотреть с субтитрами, необходимо из папки "Subs [Pelikan]" скопировать файлы в папку с видео. Большинство плееров подгрузит их автоматически при открытии видео.

info [Профиль]  [ЛС] 
Показать сообщения:    
Ответить на тему

Текущее время: 07-Дек 01:57

Часовой пояс: GMT + 4



Вы не можете начинать темы
Вы не можете отвечать на сообщения
Вы не можете редактировать свои сообщения
Вы не можете удалять свои сообщения
Вы не можете голосовать в опросах
Вы не можете прикреплять файлы к сообщениям
Вы не можете скачивать файлы