Ошибка

Аки и Сора (ОВА-2): Под покровом сна / Aki Sora: Yume no Naka [OVA] [2 из 2] [2010] [романтика, эротика, юри] [BDRip] [720p] [Любительский (JAP+SUB)]

Ответить на тему
 
Автор Сообщение

Алмаз

Пол: Пол:Муж

Стаж: 6 лет 4 месяца

Сообщений: 1836

Россия
Рейтинг

post 31-Окт-2013 03:47 2[+]

[Цитировать] 


Год выпуска: 2010
Страна: Япония
Жанр: романтика, эротика, юри
Продолжительность: 2 эп. по 24 мин.
Перевод:
  • русские субтитры от Shift (полные/вспомогательные)
    переводчик: Lighter235, редактор: Jaga

Озвучка:
  • одноголосая (жен.) от Eladiel (Anilibria)
  • одноголосая (муж.) от Cuba77 (Anidub)
  • двухголосая (муж./жен.) от DJATOM & comina (OpenDub)

Режиссер: Такахаси Такэо
Студия: Hoods Entertainment
Описание:
Данный сериал покажет нам трогательную историю запретной любви брата и сестры. Что же ждёт наших героев, чем всё закончится? Смотрите и узнаете сами. С самого детства Аки, чьё имя можно перевести как «осень», и Сора — «небо» — были весьма близки. Но с возрастом их отношения приобрели более спокойных характер, подобающий родственникам. Но чувства есть чувства, их не скроешь, даже когда любишь родного человека.
Информационные ссылки: AniDB || World Art || MAL
Качество: BDRip
Энкод: Winter - RG Pantheon
Тип видео: без хардсаба
Формат: mkv
Видео: x264 (Hi10p), 1280x720, ~2200 Kbps, 23,976 fps
Аудио JAP: Vorbis, 48000Hz, ~256 Kbps, 2ch
Аудио RUS 1: AC3, 48000Hz, ~192 Kbps, 2ch (внешними файлами)
Аудио RUS 2: AC3, 48000Hz, ~192 Kbps, 2ch (внешними файлами)
Аудио RUS 3: AC3, 48000Hz, ~192 Kbps, 2ch (внешними файлами)
Общее
Уникальный идентификатор : 239489624842136746480414750791483534067 (0xB42C0623E77577BCBC6368B0EE702AF3)
Полное имя : Z:\Anime\720p\Aki Sora - Yume no Naka [BD] [720p]\[Winter] Aki Sora - Yume no Naka 1 [BDrip 1280x720 x264 Vorbis].mkv
Формат : Matroska
Версия формата : Version 2
Размер файла : 405 Мбайт
Продолжительность : 24 м.
Режим общего битрейта : Переменный
Общий поток : 2327 Кбит/сек
Дата кодирования : UTC 2013-10-17 16:12:32
Программа кодирования : mkvmerge v2.9.8 ('C'est le bon') built on Aug 13 2009 12:49:06
Библиотека кодирования : libebml v0.7.7 + libmatroska v0.8.1

Видео
Идентификатор : 1
Формат : AVC
Формат/Информация : Advanced Video Codec
Профиль формата : High 10@L4.1
Параметр CABAC формата : Да
Параметр ReFrames формата : 9 кадров
Идентификатор кодека : V_MPEG4/ISO/AVC
Продолжительность : 24 м.
Битрейт : 2025 Кбит/сек
Ширина : 1280 пикселей
Высота : 720 пикселей
Соотношение сторон : 16:9
Режим частоты кадров : Постоянный
Частота кадров : 23,976 кадра/сек
Цветовое пространство : YUV
Субдискретизация насыщенности : 4:2:0
Битовая глубина : 10 бит
Тип развёртки : Прогрессивная
Бит/(Пиксели*Кадры) : 0.092
Размер потока : 352 Мбайт (87%)
Библиотека кодирования : x264 core 132 r2309 3b1f1f7
Настройки программы : cabac=1 / ref=9 / deblock=1:-2:-2 / analyse=0x3:0x133 / me=umh / subme=9 / psy=1 / psy_rd=0.90:0.00 / mixed_ref=1 / me_range=24 / chroma_me=1 / trellis=2 / 8x8dct=1 / cqm=0 / deadzone=21,11 / fast_pskip=1 / chroma_qp_offset=-2 / threads=6 / lookahead_threads=1 / sliced_threads=0 / nr=0 / decimate=0 / interlaced=0 / bluray_compat=0 / constrained_intra=0 / bframes=8 / b_pyramid=2 / b_adapt=2 / b_bias=0 / direct=1 / weightb=1 / open_gop=0 / weightp=2 / keyint=250 / keyint_min=23 / scenecut=40 / intra_refresh=0 / rc=crf / mbtree=0 / crf=15.5 / qcomp=0.70 / qpmin=9 / qpmax=40 / qpstep=4 / ip_ratio=1.40 / pb_ratio=1.30 / aq=1:0.90
Default : Нет
Forced : Нет

Аудио
Идентификатор : 2
Формат : Vorbis
Параметр Floor формата : 1
Идентификатор кодека : A_VORBIS
Продолжительность : 24 м.
Вид битрейта : Переменный
Битрейт : 256 Кбит/сек
Каналы : 2 канала
Частота : 48,0 КГц
Метод сжатия : С потерями
Размер потока : 44,5 Мбайт (11%)
Библиотека кодирования : libVorbis (Schaufenugget) (20101101 (Schaufenugget))
Язык : Japanese
Default : Да
Forced : Нет

  • Данный релиз предназначен для просмотра на ПК. Воспроизведение на иных проигрывателях не гарантируется. Для просмотра рекомендуется Media Player Classic с установленным пакетом кодеков K-Lite.
  • Данный релиз содержит 10-битное видео (Hi10p). Для корректного воспроизведения обязательно используйте кодеки, поддерживающие 10-битное видео.
  • Данный релиз предназначен для просмотра с внешними субтитрами и внешними звуковыми дорожками.
    • Для просмотра с внешней звуковой дорожкой нужно:
      перекинуть файлы .mka из папки "RUS Sound [<автор(ы) озвучки>]" в одну папку с видео и переключить звуковую дорожку в плеере при просмотре. Как это сделать в разных плеерах подробно описано здесь.
    • Для просмотра с субтитрами нужно:
      перекинуть файлы .ass из папки "RUS Subtitles [<автор(ы) перевода>]" в одну папку с видео - плеер подгрузит их автоматически при открытии видео.
info [Профиль]  [ЛС] 

Алмаз

Пол: Пол:Муж

Стаж: 6 лет 4 месяца

Сообщений: 1836

Россия
Рейтинг

post 31-Окт-2013 03:56 (спустя 9 минут) [-]0[+]

[Цитировать] 

Раздавать начну вечером, примерно после 6 часов.

_________________
Паранойя - чрезвычайно утешительное состояние ума. Если вам кажется, что против вас что-то замышляют - значит вы что-то да стоите! (с) Гильбран Трус (Митчелл Сэнди - Игра предателя)
info [Профиль]  [ЛС] 

papazogl0

Пол: Пол:Муж

Стаж: 4 года 11 месяцев

Сообщений: 25

Россия
Рейтинг

post 31-Окт-2013 07:27 (спустя 3 часа) [-]15[+]

[Цитировать] 

Со скринов охуел, честно.

_________________
Зла не запоминаю.
Приходится записывать.
info [Профиль]  [ЛС] 

Ardiff

Пол: Пол:Муж

Стаж: 7 лет 2 месяца

Сообщений: 181

Россия
Рейтинг

post 31-Окт-2013 08:41 (спустя 1 час 13 минут) [-]0[+]

[Цитировать] 

Откровенная штука.
info [Профиль]  [ЛС] 

nightmare088

Пол: Пол:Муж

Стаж: 3 года 7 месяцев

Сообщений: 31

Белоруссия
Рейтинг

post 31-Окт-2013 11:03 (спустя 2 часа 21 минута) [-]1[+]

[Цитировать] 

Недохянтай
info [Профиль]  [ЛС] 

ZashikiWarashi

Пол: Пол:Муж

Стаж: 4 года 1 месяц

Сообщений: 461

Предупреждений: 1

Россия
Рейтинг

post 31-Окт-2013 12:46 (спустя 1 час 43 минуты) [-]-2[+]

[Цитировать] 

жесть какая
info [Профиль]  [ЛС] 

мужиггг

Пол: Пол:Муж

Стаж: 6 лет 4 месяца

Сообщений: 357

Украина
Рейтинг

post 31-Окт-2013 12:57 (спустя 11 минут) [-]3[+]

[Цитировать] 

это аниме можно было бы крутить по рен-тв после 12 часов kolob_149
info [Профиль]  [ЛС] 

berton007

Пол: Пол:Муж

Стаж: 6 лет 9 месяцев

Сообщений: 15

Россия
Рейтинг

post 31-Окт-2013 15:57 (спустя 2 часа 59 минут) [-]-1[+]

[Цитировать] 

Да, есть немного. Но что еще с овы взять?
info [Профиль]  [ЛС] 

NeedlesKane

Пол: Пол:Муж

Стаж: 6 лет 2 месяца

Сообщений: 199

Казахстан
Рейтинг

post 31-Окт-2013 18:02 (спустя 2 часа 5 минут) [-]0[+]

[Цитировать] 

Да ниче так. Смотреть можно))

_________________
info [Профиль]  [ЛС] 

Алмаз

Пол: Пол:Муж

Стаж: 6 лет 4 месяца

Сообщений: 1836

Россия
Рейтинг

post 31-Окт-2013 18:12 (спустя 9 минут) [-]0[+]

[Цитировать] 

Там даже есть ВНЕЗАПНЫЙ поворот))

_________________
Паранойя - чрезвычайно утешительное состояние ума. Если вам кажется, что против вас что-то замышляют - значит вы что-то да стоите! (с) Гильбран Трус (Митчелл Сэнди - Игра предателя)
info [Профиль]  [ЛС] 

Sinael

Стаж: 6 лет 2 месяца

Сообщений: 261

Рейтинг

post 31-Окт-2013 19:51 (спустя 1 час 38 минут) [-]0[+]

[Цитировать] 

В манге была рисовка в уникальном авторском стиле, а братишка был на вид заметно моложе сестры. Тут рисовка стандартная хентайная, а брата и сестру почти сравняли в возрасте (по крайней мере на вид).
info [Профиль]  [ЛС] 

Алмаз

Пол: Пол:Муж

Стаж: 6 лет 4 месяца

Сообщений: 1836

Россия
Рейтинг

post 31-Окт-2013 20:27 (спустя 36 минут) [-]0[+]

[Цитировать] 

О да, совсем сравняли, 1 в 1 =_=

_________________
Паранойя - чрезвычайно утешительное состояние ума. Если вам кажется, что против вас что-то замышляют - значит вы что-то да стоите! (с) Гильбран Трус (Митчелл Сэнди - Игра предателя)
info [Профиль]  [ЛС] 

Tikutu777

Стаж: 3 года 7 месяцев

Сообщений: 202

Предупреждений: 2

Рейтинг

post 16-Дек-2013 03:46 (спустя 1 месяц 15 дней) [-]0[+]

[Цитировать] 

Бедный малый.....
info [Профиль]  [ЛС] 
Показать сообщения:    
Ответить на тему

Текущее время: 07-Дек 14:40

Часовой пояс: GMT + 4



Вы не можете начинать темы
Вы не можете отвечать на сообщения
Вы не можете редактировать свои сообщения
Вы не можете удалять свои сообщения
Вы не можете голосовать в опросах
Вы не можете прикреплять файлы к сообщениям
Вы не можете скачивать файлы