Ошибка

Турбо / Turbo (Дэвид Сорен) [2013, мультфильм, комедия, приключения, семейный, спорт, HDRip]

Ответить на тему
 
Автор Сообщение

BZzz

Пол: Пол:Муж

Стаж: 5 лет 1 месяц

Сообщений: 3647

Россия
Рейтинг

post 22-Окт-2013 01:31 9[+]

[Цитировать] 

Турбо / Turbo
«Быстрее, еще быстрее!»


Год выпуска: 2013
Страна: США
Жанр: мультфильм, комедия, приключения, семейный, спорт
Продолжительность: 01:36:19
Перевод: Профессиональный (дублированный)[цифровая лицензия iTunes]

Режиссер: Дэвид Сорен

В ролях: Райан Рейнольдс (Ryan Reynolds), Пол Джаматти (Paul Giamatti), Майкл Пенья (Michael Peña), Снуп Догг (Snoop Dogg), Майя Рудольф (Maya Rudolph), Мишель Родригес (Michelle Rodriguez), Сэмюэл Л. Джексон (Samuel L. Jackson), Луис Гусман (Luis Guzman), Билл Хейдер (Bill Hader), Бен Шварц (Ben Schwartz), Ричард Дженкинс (Richard Jenkins), Кен Жонг (Ken Jeong), Марио Андретти (Mario Andretti), Майк Белл (Mike Bell (в титрах: Michael Patrick Bell)), Эйдан Эндрюс (Aidan Andrews), Аарон Бергер (Aaron Berger), Джен Кон (Jen Cohn), Райан Крего (Ryan Crego), Рич Дитль (Rich Dietl), Пол Дули (Paul Dooley)

Описание: Ничто так не раздражает темпераментную, мечтающую о скорости улитку с говорящим именем Турбо, как неспешная жизнь, медленные разговоры, заторможенные соседи. Пусть наш герой выглядит большим чудаком в этом вялом, неторопливом мире, пусть он идёт вопреки закону природы о «рождённом ползать», но если в сердце горит «пламенный мотор», а душа верит в чудо, оно просто не имеет права не произойти!

Бюджет: $135 000 000
Сборы в США: $82 508 706
Сборы в мире: + $143 500 000 = $226 008 706
Сборы в России: $14 048 150
Рейтинг MPAA:



Качество: HDRip
Формат: AVI
Видео кодек: XviD
Аудио кодек: AC3
Видео: 720x304 (2.35:1), 23.976 fps, XviD, 1 787 Kbps
Аудио #1: AC3, 384 Kbps, 48.0 KHz, 6 ch
Format : AVI
Format/Info : Audio Video Interleave
File size : 1.46 GiB
Duration : 1h 35mn
Overall bit rate : 2 180 Kbps
Writing application : VirtualDubMod 1.5.10.2 (build 2540/release)
Writing library : VirtualDubMod build 2540/release

Video
ID : 0
Format : MPEG-4 Visual
Format profile : Advanced Simple@L5
Format settings, BVOP : 2
Format settings, QPel : No
Format settings, GMC : No warppoints
Format settings, Matrix : Custom
Codec ID : XVID
Codec ID/Hint : XviD
Duration : 1h 35mn
Bit rate : 1 787 Kbps
Width : 720 pixels
Height : 304 pixels
Display aspect ratio : 2.35:1
Frame rate : 23.976 fps
Color space : YUV
Chroma subsampling : 4:2:0
Bit depth : 8 bits
Scan type : Progressive
Compression mode : Lossy
Bits/(Pixel*Frame) : 0.340
Stream size : 1.19 GiB (82%)
Writing library : XviD 1.2.1 (UTC 2008-12-04)

Audio
ID : 1
Format : AC-3
Format/Info : Audio Coding 3
Mode extension : CM (complete main)
Format settings, Endianness : Big
Codec ID : 2000
Duration : 1h 35mn
Bit rate mode : Constant
Bit rate : 384 Kbps
Channel count : 6 channels
Channel positions : Front: L C R, Side: L R, LFE
Sampling rate : 48.0 KHz
Bit depth : 16 bits
Compression mode : Lossy
Stream size : 263 MiB (18%)
Alignment : Split accross interleaves
Interleave, duration : 42 ms (1.00 video frame)
Interleave, preload duration : 500 ms
...Во время продакшна на студии Dreamworks был припаркован индикар, чтобы предоставить художникам непосредственный доступ к гоночным автомобилям, задействованным в фильме.
info [Профиль]  [ЛС] 

post 22-Окт-2013 01:31 (спустя 14 секунд) [-]0[+]

Топик был перенесен из форума Оформление раздач (Кинематограф) в форум Rips

BZzz
 

sh0ma

Пол: Пол:Муж

Стаж: 5 лет

Сообщений: 87

Рейтинг

post 22-Окт-2013 01:51 (спустя 20 минут) [-]0[+]

[Цитировать] 

семпл помоему не работает
info [Профиль]  [ЛС] 

L

Пол: Пол:Муж

Стаж: 6 лет 8 месяцев

Сообщений: 10848

Украина
Рейтинг

post 22-Окт-2013 08:42 (спустя 6 часов) [-]1[+]

[Цитировать] 

sh0ma
Работает.

_________________
info [Профиль]  [ЛС] 

Busujima

Пол: Пол:Муж

Стаж: 3 года 6 месяцев

Сообщений: 46

Россия
Рейтинг

post 22-Окт-2013 13:57 (спустя 5 часов) [-]2[+]

[Цитировать] 

Спасибо.

_________________
Когда я не какаю - я не ем, когда я не ем - я не какаю!
info [Профиль]  [ЛС] 

timon8519

Пол: Пол:Муж

Стаж: 6 лет 9 месяцев

Сообщений: 179

СССР
Рейтинг

post 23-Окт-2013 13:13 (спустя 23 часа) [-]1[+]

[Цитировать] 

Спасибо за мульт)

_________________
info [Профиль]  [ЛС] 

BZzz

Пол: Пол:Муж

Стаж: 5 лет 1 месяц

Сообщений: 3647

Россия
Рейтинг

post 26-Окт-2013 13:22 (спустя 3 дня) [-]0[+]

[Цитировать] 

...HDRip
info [Профиль]  [ЛС] 

post 11-Янв-2014 22:38 (спустя 2 месяца 16 дней) [-]0[+]

Топик был перенесен из форума Rips в форум Зарубежные полнометражные мультфильмы

L
 
Показать сообщения:    
Ответить на тему

Текущее время: 11-Дек 14:03

Часовой пояс: GMT + 4



Вы не можете начинать темы
Вы не можете отвечать на сообщения
Вы не можете редактировать свои сообщения
Вы не можете удалять свои сообщения
Вы не можете голосовать в опросах
Вы не можете прикреплять файлы к сообщениям
Вы не можете скачивать файлы