Ошибка

Робосапиен: Перезагрузка / Robosapien: Rebooted (Шон МакНамара) [2013 г., фантастика, драма, приключения, семейный, HDRip]

Ответить на тему
 
Автор Сообщение

n.o.v.a

Пол: Пол:Муж

Стаж: 7 лет 4 месяца

Сообщений: 42

Украина
Рейтинг

post 21-Окт-2013 17:23 1[+]

[Цитировать] 

Робосапиен: Перезагрузка / Robosapien: Rebooted
Год выпуска: 2013
Страна: США
Жанр: фантастика, драма, приключения, семейный
Продолжительность: 01:25:48
Перевод: Любительский (одноголосый) [Вячеслав Прошин]
Режиссер: Шон МакНамара
В ролях: Бобби Коулмэн, Джей Хед (голос Коди), Дэвид Айгенберг, Ким Коутс, Пенелопа Энн Миллер, Жоаким де Алмейда, Холлистон Коулмэн, Робби Харрисон, Питер Джейсон, Билли Слафтер
Описание: Сюжет сталкивает доброго ученого, разрабатывающего искусственный интеллект в гуманистических целях, с могущественной корпорацией, использующей его наработки в качестве вооружения. Кибернетик крадет одного из готовых роботов по имени Тоби, который после серии злоключений и поломок теряется, а потом находится одиннадцатилетним сыном матери-одиночки, который его и восстанавливает. Следом новоиспеченные друзья спасают ученого и мать от тюрьмы.
Качество: HDRip
Формат: AVI
Видео кодек: XviD
Аудио кодек: AC3 (Dolby Digital)
Видео: 720x304 (2.37:1), 23.976 fps, XviD build 50 ~1887 kbps avg, 0.36 bit/pixel
Аудио: 48 kHz, AC3 Dolby Digital, 3/2 (L,C,R,l,r) + LFE ch, ~384 kbps
Скачать Сэмпл
General
Complete name : Y:\Robosapien.Perezagruzka.2013.L1.HDRip.1400Mb.avi
Format : AVI
Format/Info : Audio Video Interleave
File size : 1.37 GiB
Duration : 1h 25mn
Overall bit rate : 2 281 Kbps
Writing application : VirtualDubMod 1.5.10.3 | www.virtualdub-fr.org || (build 2550/release)
Writing library : VirtualDubMod build 2550/release

Video
ID : 0
Format : MPEG-4 Visual
Format profile : Advanced Simple@L5
Format settings, BVOP : 1
Format settings, QPel : No
Format settings, GMC : No warppoints
Format settings, Matrix : Custom
Codec ID : XVID
Codec ID/Hint : XviD
Duration : 1h 25mn
Bit rate : 1 888 Kbps
Width : 720 pixels
Height : 304 pixels
Display aspect ratio : 2.35:1
Frame rate : 23.976 fps
Color space : YUV
Chroma subsampling : 4:2:0
Bit depth : 8 bits
Scan type : Progressive
Compression mode : Lossy
Bits/(Pixel*Frame) : 0.360
Stream size : 1.13 GiB (83%)
Writing library : XviD 1.2.1 (UTC 2008-12-04)

Audio
ID : 1
Format : AC-3
Format/Info : Audio Coding 3
Mode extension : CM (complete main)
Codec ID : 2000
Duration : 1h 25mn
Bit rate mode : Constant
Bit rate : 384 Kbps
Channel(s) : 6 channels
Channel positions : Front: L C R, Side: L R, LFE
Sampling rate : 48.0 KHz
Bit depth : 16 bits
Compression mode : Lossy
Stream size : 236 MiB (17%)
Alignment : Split accross interleaves
Interleave, duration : 42 ms (1.00 video frame)
Interleave, preload duration : 500 ms
info [Профиль]  [ЛС] 

post 21-Окт-2013 23:27 (спустя 6 часов) [-]0[+]

Топик был перенесен из форума Анонсы в форум Rips

FuriouSAngeL
 

slambam

Пол: Пол:Муж

Стаж: 5 лет 5 месяцев

Сообщений: 38

Россия
Рейтинг

post 22-Окт-2013 10:19 (спустя 16 часов) [-]1[+]

[Цитировать] 

"Короткое замыкание" в новой формации?
info [Профиль]  [ЛС] 

stasvu

Пол: Пол:Муж

Стаж: 7 лет 6 месяцев

Сообщений: 76

Россия
Рейтинг

post 22-Окт-2013 11:29 (спустя 1 час 9 минут) [-]2[+]

[Цитировать] 

slambam писал(а):

"Короткое замыкание" в новой формации?
класный бал фильм kolob_117

_________________
info [Профиль]  [ЛС] 

TyT

Пол: Пол:Муж

Стаж: 5 лет 5 месяцев

Сообщений: 185

Россия
Рейтинг

post 22-Окт-2013 12:04 (спустя 35 минут) [-]-4[+]

[Цитировать] 

stasvu писал(а):

класный бал kolob_117

_________________
Еще чу-чуть и достигну абсолютного нуля по Цельсию. Типо -273.....
info [Профиль]  [ЛС] 

ToroS

Пол: Пол:Муж

Стаж: 5 лет

Сообщений: 71

Россия
Рейтинг

post 22-Окт-2013 13:39 (спустя 1 час 34 минуты) [-]0[+]

[Цитировать] 

круто бы ссылочку хотябы на кинопоиск добавить bs
info [Профиль]  [ЛС] 

slambam

Пол: Пол:Муж

Стаж: 5 лет 5 месяцев

Сообщений: 38

Россия
Рейтинг

post 22-Окт-2013 14:34 (спустя 54 минуты) [-]0[+]

[Цитировать] 

Для справки: Съемки фильма проходили в Новом Орлеане в 2008 году с 24 марта по 25 апреля, когда Бобби Коулмэну было 11 лет. А вышел на экраны фильм только в этом году: 3 мая - в Великобритании, а 28 мая - в США. В конце июня фильм был выпущен на DVD, а в сентябре - на Blu-ray.
info [Профиль]  [ЛС] 

totenko

Пол: Пол:Муж

Стаж: 6 лет 7 месяцев

Сообщений: 27

Россия
Рейтинг

post 22-Окт-2013 21:09 (спустя 6 часов) [-]-3[+]

[Цитировать] 

это походу новая ветка трансформеров часть 1"Детство БамблБи"
info [Профиль]  [ЛС] 

JSMadcap

Пол: Пол:Муж

Стаж: 7 лет 7 месяцев

Сообщений: 227

Рейтинг

post 22-Окт-2013 21:42 (спустя 33 минуты) [-]-1[+]

[Цитировать] 

Robocop: Начало

_________________
Евгений
info [Профиль]  [ЛС] 

post 09-Фев-2014 13:32 (спустя 3 месяца 17 дней) [-]0[+]

Топик был перенесен из форума Rips в форум Зарубежные полнометражные мультфильмы

L
 

alienheart

Стаж: 6 лет 10 месяцев

Сообщений: 481

Предупреждений: 1

Канада
Рейтинг

post 10-Фев-2014 02:03 (спустя 3 месяца 18 дней) [-]-1[+]

[Цитировать] 

думал что то интересное... короче это унылый детский фильм, где все актеры просто смехотворно переигрывают. Короче моей дочке 4 года как раз понравился.
info [Профиль]  [ЛС] 
Показать сообщения:    
Ответить на тему

Текущее время: 08-Дек 18:27

Часовой пояс: GMT + 4



Вы не можете начинать темы
Вы не можете отвечать на сообщения
Вы не можете редактировать свои сообщения
Вы не можете удалять свои сообщения
Вы не можете голосовать в опросах
Вы не можете прикреплять файлы к сообщениям
Вы не можете скачивать файлы