Ошибка

До окончания фрилича осталось:


Алиса в стране чудес / Alice in Wonderland (Тим Бёртон) [2010, Фэнтези, приключения, семейный, Blu-Ray, 2D and 3D, 1080p]

Ответить на тему
 
Автор Сообщение

zayatz

Пол: Пол:Муж

Стаж: 3 года 10 месяцев

Сообщений: 530

Россия
Рейтинг

post 20-Окт-2013 14:37 0[+]

[Цитировать] 

Алиса в стране чудес / Alice in Wonderland
«Вы приглашены на безумно важное событие»
Год выпуска: 2010
Страна: США
Студия:Walt Disney Pictures
Жанр: Фэнтези, приключения, семейный
Продолжительность: 01:48:34
Перевод: Профессиональный (полное дублирование)
Субтитры: Английский, Болгарский, Хорватский, Чешский, Датский, Эстонский, Греческий, Иврит, Венгерский, Латышский, Литовский, Норвежский, Румынский, Русский, Сербский, Словацкий, Словенский, Украинский
Режиссер: Тим Бертон / Tim Burton
В ролях: Миа Васиковска / Mia Wasikowska, Джонни Депп / Johnny Depp, Хелена Бонем Картер / Helena Bonham Carter, Энн Хэтэуэй / Anne Hathaway, Криспин Гловер / Crispin Glover, Мэтт Лукас /Matt Lucas
Описание: Алисе уже девятнадцать, и она снова попадает в причудливый мир, в котором впервые побывала еще в детстве. Ее ждет невероятное путешествие в поисках своего истинного предназначения. Страна Чудес - это ни на что не похожий мир за гранью воображения. Ваши любимые герои - Безумный Шляпник, Белая Королева, Красная Королева, Белый Кролик и другие - стали еще более яркими и харизматичными, чем прежде.
Качество: Blu-ray
Формат: ISO
Видео кодек: AVC, MVC
Аудио кодек: DTS-HD, AC3
Видео: MPEG-4 AVC Video / 25661 kbps / 1080p / 23,976 fps / 16:9 / High Profile 4.1
Аудио:
Английский DTS-HD MA 5.1-ES / 48 kHz / 3966 kbps / 24-bit (DTS Core: 5.1-ES / 48 kHz / 1509 kbps / 24-bit)
Чешский Dolby Digital 5.1-EX / 48 kHz / 640 kbps
Датский Dolby Digital 5.1-EX / 48 kHz / 640 kbps
Эстонский Dolby Digital 5.1-EX / 48 kHz / 640 kbps
Иврит Dolby Digital 5.1-EX / 48 kHz / 640 kbps
Венгерский Dolby Digital 5.1-EX / 48 kHz / 640 kbps
Литовский Dolby Digital 5.1-EX / 48 kHz / 640 kbps
Норвежский Dolby Digital 5.1-EX / 48 kHz / 640 kbps
Русский Dolby Digital 5.1-EX / 48 kHz / 640 kbps (Дубляж)
Словацкий Dolby Digital 5.1-EX / 48 kHz / 640 kbps
Украинский Dolby Digital 5.1-EX / 48 kHz / 640 kbps (Дубляж)


Просмотр рекомендован через
DISC INFO:

Disc Title: ALICE_IN_WONDERLAND3D
Disc Size: 47 608 399 987 bytes
Protection: AACS
BD-Java: No
Extras: Blu-ray 3D
BDInfo: 0.5.6

PLAYLIST REPORT:

Name: 00070.MPLS
Length: 1:48:34 (h:m:s)
Size: 31 704 072 192 bytes
Total Bitrate: 38,93 Mbps

VIDEO:

Codec Bitrate Description
----- ------- -----------
MPEG-4 AVC Video 25661 kbps 1080p / 23,976 fps / 16:9 / High Profile 4.1

AUDIO:

Codec Language Bitrate Description
----- -------- ------- -----------
DTS-HD Master Audio English 3966 kbps 5.1-ES / 48 kHz / 3966 kbps / 24-bit (DTS Core: 5.1-ES / 48 kHz / 1509 kbps / 24-bit)
Dolby Digital EX Audio Czech 640 kbps 5.1-EX / 48 kHz / 640 kbps
Dolby Digital EX Audio Danish 640 kbps 5.1-EX / 48 kHz / 640 kbps
Dolby Digital EX Audio Estonian 640 kbps 5.1-EX / 48 kHz / 640 kbps
Dolby Digital EX Audio Hebrew 640 kbps 5.1-EX / 48 kHz / 640 kbps
Dolby Digital EX Audio Hungarian 640 kbps 5.1-EX / 48 kHz / 640 kbps
Dolby Digital EX Audio Lithuanian 640 kbps 5.1-EX / 48 kHz / 640 kbps
Dolby Digital EX Audio Norwegian 640 kbps 5.1-EX / 48 kHz / 640 kbps
Dolby Digital EX Audio Russian 640 kbps 5.1-EX / 48 kHz / 640 kbps
Dolby Digital EX Audio Slovak 640 kbps 5.1-EX / 48 kHz / 640 kbps
Dolby Digital EX Audio Ukrainian 640 kbps 5.1-EX / 48 kHz / 640 kbps

SUBTITLES:

Codec Language Bitrate Description
----- -------- ------- -----------
Presentation Graphics English 24,214 kbps
Presentation Graphics English 28,780 kbps
Presentation Graphics Bulgarian 22,951 kbps
Presentation Graphics Croatian 21,571 kbps
Presentation Graphics Czech 21,614 kbps
Presentation Graphics Czech 0,027 kbps
Presentation Graphics Danish 23,240 kbps
Presentation Graphics Danish 0,084 kbps
Presentation Graphics Estonian 23,507 kbps
Presentation Graphics Estonian 0,051 kbps
Presentation Graphics Greek 25,837 kbps
Presentation Graphics Hebrew 15,664 kbps
Presentation Graphics Hebrew 0,035 kbps
Presentation Graphics Hungarian 23,250 kbps
Presentation Graphics Hungarian 0,064 kbps
Presentation Graphics Latvian 23,666 kbps
Presentation Graphics Lithuanian 22,071 kbps
Presentation Graphics Lithuanian 0,042 kbps
Presentation Graphics Norwegian 24,784 kbps
Presentation Graphics Norwegian 0,068 kbps
Presentation Graphics Romanian 22,371 kbps
Presentation Graphics Russian 24,350 kbps
Presentation Graphics Russian 0,074 kbps
Presentation Graphics Serbian 23,545 kbps
Presentation Graphics Slovak 23,131 kbps
Presentation Graphics Slovak 0,063 kbps
Presentation Graphics Slovenian 20,455 kbps
Presentation Graphics Ukrainian 23,705 kbps
Presentation Graphics Ukrainian 0,030 kbps

FILES:

Name Time In Length Size Total Bitrate
---- ------- ------ ---- -------------
00115.M2TS 0:00:00.000 0:58:17.452 17 141 508 096 39 209
00133.M2TS 0:58:17.452 0:50:17.431 14 562 564 096 38 609
General
Complete name : G:\\BDMV\PLAYLIST\00070.mpls
Format : Blu-ray Playlist
File size : 1.95 KiB
Duration : 1h 48mn
Overall bit rate mode : Variable
Overall bit rate : 2 bps

Video #1
ID : 4114 (0x1012) / 4113 (0x1011)
Menu ID : 1 (0x1)
Format : AVC
Format/Info : Advanced Video Codec
Format profile : Stereo High@L4.1 / High@L4.1
Format settings, CABAC : Yes
Format settings, ReFrames : 2 frames
Codec ID : 27
Duration : 58mn 17s
Bit rate mode : Variable
Width : 1 920 pixels
Height : 1 080 pixels
Display aspect ratio : 16:9
Frame rate : 23.976 fps
Color space : YUV
Chroma subsampling : 4:2:0
Bit depth : 8 bits
Scan type : Progressive
format_identifier : HDMV
Source : 00116.m2ts / 00115.m2ts

Video #2
ID : 4114 (0x1012) / 4113 (0x1011)
Menu ID : 1 (0x1)
Format : AVC
Format/Info : Advanced Video Codec
Format profile : Stereo High@L4.1 / High@L4.1
Format settings, CABAC : Yes
Format settings, ReFrames : 2 frames
Codec ID : 27
Duration : 50mn 17s
Bit rate mode : Variable
Width : 1 920 pixels
Height : 1 080 pixels
Display aspect ratio : 16:9
Frame rate : 23.976 fps
Color space : YUV
Chroma subsampling : 4:2:0
Bit depth : 8 bits
Scan type : Progressive
format_identifier : HDMV
Source : 00134.m2ts / 00133.m2ts

Audio #1
ID : 4352 (0x1100)
Menu ID : 1 (0x1)
Format : DTS
Format/Info : Digital Theater Systems
Format profile : MA / Core
Mode : 16
Format settings, Endianness : Big
Muxing mode : Stream extension
Codec ID : 134
Duration : 58mn 17s
Bit rate mode : Variable
Bit rate : Unknown / 1 509 Kbps
Channel count : 6 channels
Channel positions : Front: L C R, Side: L R, LFE
Sampling rate : 48.0 KHz
Bit depth : 24 bits
Compression mode : Lossless / Lossy
Language : English
Source : 00115.m2ts

Audio #2
ID : 4353 (0x1101)
Menu ID : 1 (0x1)
Format : AC-3
Format/Info : Audio Coding 3
Mode extension : CM (complete main)
Format settings, Endianness : Big
Codec ID : 129
Duration : 58mn 17s
Bit rate mode : Constant
Bit rate : 640 Kbps
Channel count : 6 channels
Channel positions : Front: L C R, Side: L R, LFE
Sampling rate : 48.0 KHz
Bit depth : 16 bits
Compression mode : Lossy
Stream size : 267 MiB (2%)
Language : Czech
bsid : 6
dialnorm : -31
dialnorm/String : -31 dB
compr : -0.28
compr/String : -0.28 dB
acmod : 7
lfeon : 1
dialnorm_Average : -31
dialnorm_Average/String : -31 dB
dialnorm_Minimum : -31
dialnorm_Minimum/String : -31 dB
dialnorm_Maximum : -31
dialnorm_Maximum/String : -31 dB
dialnorm_Count : 129
compr_Average : 0.42
compr_Average/String : 0.42 dB
compr_Minimum : -0.28
compr_Minimum/String : -0.28 dB
compr_Maximum : 1.49
compr_Maximum/String : 1.49 dB
compr_Count : 129
dynrng_Average : 0.52
dynrng_Average/String : 0.52 dB
dynrng_Minimum : 0.00
dynrng_Minimum/String : 0.00 dB
dynrng_Maximum : 1.26
dynrng_Maximum/String : 1.26 dB
dynrng_Count : 129
format_identifier : AC-3
Source : 00115.m2ts

Audio #3
ID : 4354 (0x1102)
Menu ID : 1 (0x1)
Format : AC-3
Format/Info : Audio Coding 3
Mode extension : CM (complete main)
Format settings, Endianness : Big
Codec ID : 129
Duration : 58mn 17s
Bit rate mode : Constant
Bit rate : 640 Kbps
Channel count : 6 channels
Channel positions : Front: L C R, Side: L R, LFE
Sampling rate : 48.0 KHz
Bit depth : 16 bits
Compression mode : Lossy
Stream size : 267 MiB (2%)
Language : Hungarian
bsid : 6
dialnorm : -31
dialnorm/String : -31 dB
compr : -0.28
compr/String : -0.28 dB
acmod : 7
lfeon : 1
dialnorm_Average : -31
dialnorm_Average/String : -31 dB
dialnorm_Minimum : -31
dialnorm_Minimum/String : -31 dB
dialnorm_Maximum : -31
dialnorm_Maximum/String : -31 dB
dialnorm_Count : 129
compr_Average : 0.35
compr_Average/String : 0.35 dB
compr_Minimum : -0.28
compr_Minimum/String : -0.28 dB
compr_Maximum : 1.49
compr_Maximum/String : 1.49 dB
compr_Count : 129
dynrng_Average : 0.43
dynrng_Average/String : 0.43 dB
dynrng_Minimum : 0.00
dynrng_Minimum/String : 0.00 dB
dynrng_Maximum : 1.26
dynrng_Maximum/String : 1.26 dB
dynrng_Count : 129
format_identifier : AC-3
Source : 00115.m2ts

Audio #4
ID : 4355 (0x1103)
Menu ID : 1 (0x1)
Format : AC-3
Format/Info : Audio Coding 3
Mode extension : CM (complete main)
Format settings, Endianness : Big
Codec ID : 129
Duration : 58mn 17s
Bit rate mode : Constant
Bit rate : 640 Kbps
Channel count : 6 channels
Channel positions : Front: L C R, Side: L R, LFE
Sampling rate : 48.0 KHz
Bit depth : 16 bits
Compression mode : Lossy
Stream size : 267 MiB (2%)
Language : Russian
bsid : 6
dialnorm : -31
dialnorm/String : -31 dB
compr : -0.28
compr/String : -0.28 dB
acmod : 7
lfeon : 1
dialnorm_Average : -31
dialnorm_Average/String : -31 dB
dialnorm_Minimum : -31
dialnorm_Minimum/String : -31 dB
dialnorm_Maximum : -31
dialnorm_Maximum/String : -31 dB
dialnorm_Count : 129
compr_Average : 0.26
compr_Average/String : 0.26 dB
compr_Minimum : -0.28
compr_Minimum/String : -0.28 dB
compr_Maximum : 0.53
compr_Maximum/String : 0.53 dB
compr_Count : 129
dynrng_Average : 0.33
dynrng_Average/String : 0.33 dB
dynrng_Minimum : -0.14
dynrng_Minimum/String : -0.14 dB
dynrng_Maximum : 0.78
dynrng_Maximum/String : 0.78 dB
dynrng_Count : 129
format_identifier : AC-3
Source : 00115.m2ts

Audio #5
ID : 4356 (0x1104)
Menu ID : 1 (0x1)
Format : AC-3
Format/Info : Audio Coding 3
Mode extension : CM (complete main)
Format settings, Endianness : Big
Codec ID : 129
Duration : 58mn 17s
Bit rate mode : Constant
Bit rate : 640 Kbps
Channel count : 6 channels
Channel positions : Front: L C R, Side: L R, LFE
Sampling rate : 48.0 KHz
Bit depth : 16 bits
Compression mode : Lossy
Stream size : 267 MiB (2%)
Language : Ukrainian
bsid : 6
dialnorm : -31
dialnorm/String : -31 dB
compr : -0.28
compr/String : -0.28 dB
acmod : 7
lfeon : 1
dialnorm_Average : -31
dialnorm_Average/String : -31 dB
dialnorm_Minimum : -31
dialnorm_Minimum/String : -31 dB
dialnorm_Maximum : -31
dialnorm_Maximum/String : -31 dB
dialnorm_Count : 129
compr_Average : -0.21
compr_Average/String : -0.21 dB
compr_Minimum : -0.86
compr_Minimum/String : -0.86 dB
compr_Maximum : 1.49
compr_Maximum/String : 1.49 dB
compr_Count : 129
dynrng_Average : -0.09
dynrng_Average/String : -0.09 dB
dynrng_Minimum : -0.86
dynrng_Minimum/String : -0.86 dB
dynrng_Maximum : 1.26
dynrng_Maximum/String : 1.26 dB
dynrng_Count : 129
format_identifier : AC-3
Source : 00115.m2ts

Audio #6
ID : 4357 (0x1105)
Menu ID : 1 (0x1)
Format : AC-3
Format/Info : Audio Coding 3
Mode extension : CM (complete main)
Format settings, Endianness : Big
Codec ID : 129
Duration : 58mn 17s
Bit rate mode : Constant
Bit rate : 640 Kbps
Channel count : 6 channels
Channel positions : Front: L C R, Side: L R, LFE
Sampling rate : 48.0 KHz
Bit depth : 16 bits
Compression mode : Lossy
Stream size : 267 MiB (2%)
Language : Slovak
bsid : 6
dialnorm : -31
dialnorm/String : -31 dB
compr : -0.28
compr/String : -0.28 dB
acmod : 7
lfeon : 1
dialnorm_Average : -31
dialnorm_Average/String : -31 dB
dialnorm_Minimum : -31
dialnorm_Minimum/String : -31 dB
dialnorm_Maximum : -31
dialnorm_Maximum/String : -31 dB
dialnorm_Count : 129
compr_Average : 0.20
compr_Average/String : 0.20 dB
compr_Minimum : -0.28
compr_Minimum/String : -0.28 dB
compr_Maximum : 1.02
compr_Maximum/String : 1.02 dB
compr_Count : 129
dynrng_Average : 0.33
dynrng_Average/String : 0.33 dB
dynrng_Minimum : 0.00
dynrng_Minimum/String : 0.00 dB
dynrng_Maximum : 1.02
dynrng_Maximum/String : 1.02 dB
dynrng_Count : 129
format_identifier : AC-3
Source : 00115.m2ts

Audio #7
ID : 4358 (0x1106)
Menu ID : 1 (0x1)
Format : AC-3
Format/Info : Audio Coding 3
Mode extension : CM (complete main)
Format settings, Endianness : Big
Codec ID : 129
Duration : 58mn 17s
Bit rate mode : Constant
Bit rate : 640 Kbps
Channel count : 6 channels
Channel positions : Front: L C R, Side: L R, LFE
Sampling rate : 48.0 KHz
Bit depth : 16 bits
Compression mode : Lossy
Stream size : 267 MiB (2%)
Language : Norwegian
bsid : 6
dialnorm : -31
dialnorm/String : -31 dB
compr : -0.28
compr/String : -0.28 dB
acmod : 7
lfeon : 1
dialnorm_Average : -31
dialnorm_Average/String : -31 dB
dialnorm_Minimum : -31
dialnorm_Minimum/String : -31 dB
dialnorm_Maximum : -31
dialnorm_Maximum/String : -31 dB
dialnorm_Count : 129
compr_Average : 0.29
compr_Average/String : 0.29 dB
compr_Minimum : -0.28
compr_Minimum/String : -0.28 dB
compr_Maximum : 1.02
compr_Maximum/String : 1.02 dB
compr_Count : 129
dynrng_Average : 0.44
dynrng_Average/String : 0.44 dB
dynrng_Minimum : 0.00
dynrng_Minimum/String : 0.00 dB
dynrng_Maximum : 1.26
dynrng_Maximum/String : 1.26 dB
dynrng_Count : 129
format_identifier : AC-3
Source : 00115.m2ts

Audio #8
ID : 4359 (0x1107)
Menu ID : 1 (0x1)
Format : AC-3
Format/Info : Audio Coding 3
Mode extension : CM (complete main)
Format settings, Endianness : Big
Codec ID : 129
Duration : 58mn 17s
Bit rate mode : Constant
Bit rate : 640 Kbps
Channel count : 6 channels
Channel positions : Front: L C R, Side: L R, LFE
Sampling rate : 48.0 KHz
Bit depth : 16 bits
Compression mode : Lossy
Stream size : 267 MiB (2%)
Language : Danish
bsid : 6
dialnorm : -31
dialnorm/String : -31 dB
compr : -0.28
compr/String : -0.28 dB
acmod : 7
lfeon : 1
dialnorm_Average : -31
dialnorm_Average/String : -31 dB
dialnorm_Minimum : -31
dialnorm_Minimum/String : -31 dB
dialnorm_Maximum : -31
dialnorm_Maximum/String : -31 dB
dialnorm_Count : 129
compr_Average : 0.13
compr_Average/String : 0.13 dB
compr_Minimum : -0.28
compr_Minimum/String : -0.28 dB
compr_Maximum : 1.49
compr_Maximum/String : 1.49 dB
compr_Count : 129
dynrng_Average : 0.35
dynrng_Average/String : 0.35 dB
dynrng_Minimum : 0.00
dynrng_Minimum/String : 0.00 dB
dynrng_Maximum : 1.26
dynrng_Maximum/String : 1.26 dB
dynrng_Count : 129
format_identifier : AC-3
Source : 00115.m2ts

Audio #9
ID : 4360 (0x1108)
Menu ID : 1 (0x1)
Format : AC-3
Format/Info : Audio Coding 3
Mode extension : CM (complete main)
Format settings, Endianness : Big
Codec ID : 129
Duration : 58mn 17s
Bit rate mode : Constant
Bit rate : 640 Kbps
Channel count : 6 channels
Channel positions : Front: L C R, Side: L R, LFE
Sampling rate : 48.0 KHz
Bit depth : 16 bits
Compression mode : Lossy
Stream size : 267 MiB (2%)
Language : Lithuanian
bsid : 6
dialnorm : -31
dialnorm/String : -31 dB
compr : 5.46
compr/String : 5.46 dB
dynrng : 5.46
dynrng/String : 5.46 dB
acmod : 7
lfeon : 1
dialnorm_Average : -31
dialnorm_Average/String : -31 dB
dialnorm_Minimum : -31
dialnorm_Minimum/String : -31 dB
dialnorm_Maximum : -31
dialnorm_Maximum/String : -31 dB
dialnorm_Count : 129
compr_Average : 0.24
compr_Average/String : 0.24 dB
compr_Minimum : -0.28
compr_Minimum/String : -0.28 dB
compr_Maximum : 5.46
compr_Maximum/String : 5.46 dB
compr_Count : 129
dynrng_Average : 0.50
dynrng_Average/String : 0.50 dB
dynrng_Minimum : 0.00
dynrng_Minimum/String : 0.00 dB
dynrng_Maximum : 5.46
dynrng_Maximum/String : 5.46 dB
dynrng_Count : 129
format_identifier : AC-3
Source : 00115.m2ts

Audio #10
ID : 4361 (0x1109)
Menu ID : 1 (0x1)
Format : AC-3
Format/Info : Audio Coding 3
Mode extension : CM (complete main)
Format settings, Endianness : Big
Codec ID : 129
Duration : 58mn 17s
Bit rate mode : Constant
Bit rate : 640 Kbps
Channel count : 6 channels
Channel positions : Front: L C R, Side: L R, LFE
Sampling rate : 48.0 KHz
Bit depth : 16 bits
Compression mode : Lossy
Stream size : 267 MiB (2%)
Language : Estonian
bsid : 6
dialnorm : -31
dialnorm/String : -31 dB
compr : -0.28
compr/String : -0.28 dB
acmod : 7
lfeon : 1
dialnorm_Average : -31
dialnorm_Average/String : -31 dB
dialnorm_Minimum : -31
dialnorm_Minimum/String : -31 dB
dialnorm_Maximum : -31
dialnorm_Maximum/String : -31 dB
dialnorm_Count : 129
compr_Average : 0.29
compr_Average/String : 0.29 dB
compr_Minimum : -0.28
compr_Minimum/String : -0.28 dB
compr_Maximum : 1.49
compr_Maximum/String : 1.49 dB
compr_Count : 129
dynrng_Average : 0.45
dynrng_Average/String : 0.45 dB
dynrng_Minimum : 0.00
dynrng_Minimum/String : 0.00 dB
dynrng_Maximum : 1.49
dynrng_Maximum/String : 1.49 dB
dynrng_Count : 129
format_identifier : AC-3
Source : 00115.m2ts

Audio #11
ID : 4362 (0x110A)
Menu ID : 1 (0x1)
Format : AC-3
Format/Info : Audio Coding 3
Mode extension : CM (complete main)
Format settings, Endianness : Big
Codec ID : 129
Duration : 58mn 17s
Bit rate mode : Constant
Bit rate : 640 Kbps
Channel count : 6 channels
Channel positions : Front: L C R, Side: L R, LFE
Sampling rate : 48.0 KHz
Bit depth : 16 bits
Compression mode : Lossy
Stream size : 267 MiB (2%)
Language : Hebrew
bsid : 6
dialnorm : -31
dialnorm/String : -31 dB
compr : -0.28
compr/String : -0.28 dB
acmod : 7
lfeon : 1
dialnorm_Average : -31
dialnorm_Average/String : -31 dB
dialnorm_Minimum : -31
dialnorm_Minimum/String : -31 dB
dialnorm_Maximum : -31
dialnorm_Maximum/String : -31 dB
dialnorm_Count : 129
compr_Average : 0.07
compr_Average/String : 0.07 dB
compr_Minimum : -0.28
compr_Minimum/String : -0.28 dB
compr_Maximum : 0.53
compr_Maximum/String : 0.53 dB
compr_Count : 129
dynrng_Average : 0.28
dynrng_Average/String : 0.28 dB
dynrng_Minimum : 0.00
dynrng_Minimum/String : 0.00 dB
dynrng_Maximum : 0.78
dynrng_Maximum/String : 0.78 dB
dynrng_Count : 129
format_identifier : AC-3
Source : 00115.m2ts

Audio #12
ID : 4352 (0x1100)
Menu ID : 1 (0x1)
Format : DTS
Format/Info : Digital Theater Systems
Format profile : MA / Core
Mode : 16
Format settings, Endianness : Big
Muxing mode : Stream extension
Codec ID : 134
Duration : 50mn 17s
Bit rate mode : Variable
Bit rate : Unknown / 1 509 Kbps
Channel count : 6 channels
Channel positions : Front: L C R, Side: L R, LFE
Sampling rate : 48.0 KHz
Bit depth : 24 bits
Compression mode : Lossless / Lossy
Language : English
Source : 00133.m2ts

Audio #13
ID : 4353 (0x1101)
Menu ID : 1 (0x1)
Format : AC-3
Format/Info : Audio Coding 3
Mode extension : CM (complete main)
Format settings, Endianness : Big
Codec ID : 129
Duration : 50mn 17s
Bit rate mode : Constant
Bit rate : 640 Kbps
Channel count : 6 channels
Channel positions : Front: L C R, Side: L R, LFE
Sampling rate : 48.0 KHz
Bit depth : 16 bits
Compression mode : Lossy
Stream size : 230 MiB (2%)
Language : Czech
bsid : 6
dialnorm : -31
dialnorm/String : -31 dB
compr : 0.53
compr/String : 0.53 dB
dynrng : 0.78
dynrng/String : 0.78 dB
acmod : 7
lfeon : 1
dialnorm_Average : -31
dialnorm_Average/String : -31 dB
dialnorm_Minimum : -31
dialnorm_Minimum/String : -31 dB
dialnorm_Maximum : -31
dialnorm_Maximum/String : -31 dB
dialnorm_Count : 243
compr_Average : 5.64
compr_Average/String : 5.64 dB
compr_Minimum : 0.53
compr_Minimum/String : 0.53 dB
compr_Maximum : 6.02
compr_Maximum/String : 6.02 dB
compr_Count : 243
dynrng_Average : 5.63
dynrng_Average/String : 5.63 dB
dynrng_Minimum : 0.78
dynrng_Minimum/String : 0.78 dB
dynrng_Maximum : 6.02
dynrng_Maximum/String : 6.02 dB
dynrng_Count : 243
format_identifier : AC-3
Source : 00133.m2ts

Audio #14
ID : 4354 (0x1102)
Menu ID : 1 (0x1)
Format : AC-3
Format/Info : Audio Coding 3
Mode extension : CM (complete main)
Format settings, Endianness : Big
Codec ID : 129
Duration : 50mn 17s
Bit rate mode : Constant
Bit rate : 640 Kbps
Channel count : 6 channels
Channel positions : Front: L C R, Side: L R, LFE
Sampling rate : 48.0 KHz
Bit depth : 16 bits
Compression mode : Lossy
Stream size : 230 MiB (2%)
Language : Hungarian
bsid : 6
dialnorm : -31
dialnorm/String : -31 dB
compr : 0.53
compr/String : 0.53 dB
dynrng : 0.53
dynrng/String : 0.53 dB
acmod : 7
lfeon : 1
dialnorm_Average : -31
dialnorm_Average/String : -31 dB
dialnorm_Minimum : -31
dialnorm_Minimum/String : -31 dB
dialnorm_Maximum : -31
dialnorm_Maximum/String : -31 dB
dialnorm_Count : 243
compr_Average : 5.66
compr_Average/String : 5.66 dB
compr_Minimum : 0.53
compr_Minimum/String : 0.53 dB
compr_Maximum : 6.02
compr_Maximum/String : 6.02 dB
compr_Count : 243
dynrng_Average : 5.64
dynrng_Average/String : 5.64 dB
dynrng_Minimum : 0.53
dynrng_Minimum/String : 0.53 dB
dynrng_Maximum : 5.88
dynrng_Maximum/String : 5.88 dB
dynrng_Count : 243
format_identifier : AC-3
Source : 00133.m2ts

Audio #15
ID : 4355 (0x1103)
Menu ID : 1 (0x1)
Format : AC-3
Format/Info : Audio Coding 3
Mode extension : CM (complete main)
Format settings, Endianness : Big
Codec ID : 129
Duration : 50mn 17s
Bit rate mode : Constant
Bit rate : 640 Kbps
Channel count : 6 channels
Channel positions : Front: L C R, Side: L R, LFE
Sampling rate : 48.0 KHz
Bit depth : 16 bits
Compression mode : Lossy
Stream size : 230 MiB (2%)
Language : Russian
bsid : 6
dialnorm : -31
dialnorm/String : -31 dB
compr : 0.53
compr/String : 0.53 dB
dynrng : 0.53
dynrng/String : 0.53 dB
acmod : 7
lfeon : 1
dialnorm_Average : -31
dialnorm_Average/String : -31 dB
dialnorm_Minimum : -31
dialnorm_Minimum/String : -31 dB
dialnorm_Maximum : -31
dialnorm_Maximum/String : -31 dB
dialnorm_Count : 243
compr_Average : 5.66
compr_Average/String : 5.66 dB
compr_Minimum : 0.53
compr_Minimum/String : 0.53 dB
compr_Maximum : 6.02
compr_Maximum/String : 6.02 dB
compr_Count : 243
dynrng_Average : 5.64
dynrng_Average/String : 5.64 dB
dynrng_Minimum : 0.53
dynrng_Minimum/String : 0.53 dB
dynrng_Maximum : 5.88
dynrng_Maximum/String : 5.88 dB
dynrng_Count : 243
format_identifier : AC-3
Source : 00133.m2ts

Audio #16
ID : 4356 (0x1104)
Menu ID : 1 (0x1)
Format : AC-3
Format/Info : Audio Coding 3
Mode extension : CM (complete main)
Format settings, Endianness : Big
Codec ID : 129
Duration : 50mn 17s
Bit rate mode : Constant
Bit rate : 640 Kbps
Channel count : 6 channels
Channel positions : Front: L C R, Side: L R, LFE
Sampling rate : 48.0 KHz
Bit depth : 16 bits
Compression mode : Lossy
Stream size : 230 MiB (2%)
Language : Ukrainian
bsid : 6
dialnorm : -31
dialnorm/String : -31 dB
compr : 0.53
compr/String : 0.53 dB
dynrng : 0.27
dynrng/String : 0.27 dB
acmod : 7
lfeon : 1
dialnorm_Average : -31
dialnorm_Average/String : -31 dB
dialnorm_Minimum : -31
dialnorm_Minimum/String : -31 dB
dialnorm_Maximum : -31
dialnorm_Maximum/String : -31 dB
dialnorm_Count : 243
compr_Average : 5.66
compr_Average/String : 5.66 dB
compr_Minimum : 0.53
compr_Minimum/String : 0.53 dB
compr_Maximum : 6.02
compr_Maximum/String : 6.02 dB
compr_Count : 243
dynrng_Average : 5.64
dynrng_Average/String : 5.64 dB
dynrng_Minimum : 0.27
dynrng_Minimum/String : 0.27 dB
dynrng_Maximum : 5.88
dynrng_Maximum/String : 5.88 dB
dynrng_Count : 243
format_identifier : AC-3
Source : 00133.m2ts

Audio #17
ID : 4357 (0x1105)
Menu ID : 1 (0x1)
Format : AC-3
Format/Info : Audio Coding 3
Mode extension : CM (complete main)
Format settings, Endianness : Big
Codec ID : 129
Duration : 50mn 17s
Bit rate mode : Constant
Bit rate : 640 Kbps
Channel count : 6 channels
Channel positions : Front: L C R, Side: L R, LFE
Sampling rate : 48.0 KHz
Bit depth : 16 bits
Compression mode : Lossy
Stream size : 230 MiB (2%)
Language : Slovak
bsid : 6
dialnorm : -31
dialnorm/String : -31 dB
compr : 0.53
compr/String : 0.53 dB
dynrng : 0.53
dynrng/String : 0.53 dB
acmod : 7
lfeon : 1
dialnorm_Average : -31
dialnorm_Average/String : -31 dB
dialnorm_Minimum : -31
dialnorm_Minimum/String : -31 dB
dialnorm_Maximum : -31
dialnorm_Maximum/String : -31 dB
dialnorm_Count : 243
compr_Average : 5.66
compr_Average/String : 5.66 dB
compr_Minimum : 0.53
compr_Minimum/String : 0.53 dB
compr_Maximum : 6.02
compr_Maximum/String : 6.02 dB
compr_Count : 243
dynrng_Average : 5.64
dynrng_Average/String : 5.64 dB
dynrng_Minimum : 0.53
dynrng_Minimum/String : 0.53 dB
dynrng_Maximum : 5.88
dynrng_Maximum/String : 5.88 dB
dynrng_Count : 243
format_identifier : AC-3
Source : 00133.m2ts

Audio #18
ID : 4358 (0x1106)
Menu ID : 1 (0x1)
Format : AC-3
Format/Info : Audio Coding 3
Mode extension : CM (complete main)
Format settings, Endianness : Big
Codec ID : 129
Duration : 50mn 17s
Bit rate mode : Constant
Bit rate : 640 Kbps
Channel count : 6 channels
Channel positions : Front: L C R, Side: L R, LFE
Sampling rate : 48.0 KHz
Bit depth : 16 bits
Compression mode : Lossy
Stream size : 230 MiB (2%)
Language : Norwegian
bsid : 6
dialnorm : -31
dialnorm/String : -31 dB
compr : 0.53
compr/String : 0.53 dB
dynrng : 0.53
dynrng/String : 0.53 dB
acmod : 7
lfeon : 1
dialnorm_Average : -31
dialnorm_Average/String : -31 dB
dialnorm_Minimum : -31
dialnorm_Minimum/String : -31 dB
dialnorm_Maximum : -31
dialnorm_Maximum/String : -31 dB
dialnorm_Count : 243
compr_Average : 5.66
compr_Average/String : 5.66 dB
compr_Minimum : 0.53
compr_Minimum/String : 0.53 dB
compr_Maximum : 6.02
compr_Maximum/String : 6.02 dB
compr_Count : 243
dynrng_Average : 5.64
dynrng_Average/String : 5.64 dB
dynrng_Minimum : 0.53
dynrng_Minimum/String : 0.53 dB
dynrng_Maximum : 5.88
dynrng_Maximum/String : 5.88 dB
dynrng_Count : 243
format_identifier : AC-3
Source : 00133.m2ts

Audio #19
ID : 4359 (0x1107)
Menu ID : 1 (0x1)
Format : AC-3
Format/Info : Audio Coding 3
Mode extension : CM (complete main)
Format settings, Endianness : Big
Codec ID : 129
Duration : 50mn 17s
Bit rate mode : Constant
Bit rate : 640 Kbps
Channel count : 6 channels
Channel positions : Front: L C R, Side: L R, LFE
Sampling rate : 48.0 KHz
Bit depth : 16 bits
Compression mode : Lossy
Stream size : 230 MiB (2%)
Language : Danish
bsid : 6
dialnorm : -31
dialnorm/String : -31 dB
compr : 0.53
compr/String : 0.53 dB
dynrng : 0.78
dynrng/String : 0.78 dB
acmod : 7
lfeon : 1
dialnorm_Average : -31
dialnorm_Average/String : -31 dB
dialnorm_Minimum : -31
dialnorm_Minimum/String : -31 dB
dialnorm_Maximum : -31
dialnorm_Maximum/String : -31 dB
dialnorm_Count : 243
compr_Average : 5.66
compr_Average/String : 5.66 dB
compr_Minimum : 0.53
compr_Minimum/String : 0.53 dB
compr_Maximum : 6.02
compr_Maximum/String : 6.02 dB
compr_Count : 243
dynrng_Average : 5.64
dynrng_Average/String : 5.64 dB
dynrng_Minimum : 0.78
dynrng_Minimum/String : 0.78 dB
dynrng_Maximum : 5.88
dynrng_Maximum/String : 5.88 dB
dynrng_Count : 243
format_identifier : AC-3
Source : 00133.m2ts

Audio #20
ID : 4360 (0x1108)
Menu ID : 1 (0x1)
Format : AC-3
Format/Info : Audio Coding 3
Mode extension : CM (complete main)
Format settings, Endianness : Big
Codec ID : 129
Duration : 50mn 17s
Bit rate mode : Constant
Bit rate : 640 Kbps
Channel count : 6 channels
Channel positions : Front: L C R, Side: L R, LFE
Sampling rate : 48.0 KHz
Bit depth : 16 bits
Compression mode : Lossy
Stream size : 230 MiB (2%)
Language : Lithuanian
bsid : 6
dialnorm : -31
dialnorm/String : -31 dB
compr : 0.53
compr/String : 0.53 dB
dynrng : 0.53
dynrng/String : 0.53 dB
acmod : 7
lfeon : 1
dialnorm_Average : -31
dialnorm_Average/String : -31 dB
dialnorm_Minimum : -31
dialnorm_Minimum/String : -31 dB
dialnorm_Maximum : -31
dialnorm_Maximum/String : -31 dB
dialnorm_Count : 243
compr_Average : 5.65
compr_Average/String : 5.65 dB
compr_Minimum : 0.53
compr_Minimum/String : 0.53 dB
compr_Maximum : 6.02
compr_Maximum/String : 6.02 dB
compr_Count : 243
dynrng_Average : 5.64
dynrng_Average/String : 5.64 dB
dynrng_Minimum : 0.53
dynrng_Minimum/String : 0.53 dB
dynrng_Maximum : 5.88
dynrng_Maximum/String : 5.88 dB
dynrng_Count : 243
format_identifier : AC-3
Source : 00133.m2ts

Audio #21
ID : 4361 (0x1109)
Menu ID : 1 (0x1)
Format : AC-3
Format/Info : Audio Coding 3
Mode extension : CM (complete main)
Format settings, Endianness : Big
Codec ID : 129
Duration : 50mn 17s
Bit rate mode : Constant
Bit rate : 640 Kbps
Channel count : 6 channels
Channel positions : Front: L C R, Side: L R, LFE
Sampling rate : 48.0 KHz
Bit depth : 16 bits
Compression mode : Lossy
Stream size : 230 MiB (2%)
Language : Estonian
bsid : 6
dialnorm : -31
dialnorm/String : -31 dB
compr : 0.53
compr/String : 0.53 dB
dynrng : 0.53
dynrng/String : 0.53 dB
acmod : 7
lfeon : 1
dialnorm_Average : -31
dialnorm_Average/String : -31 dB
dialnorm_Minimum : -31
dialnorm_Minimum/String : -31 dB
dialnorm_Maximum : -31
dialnorm_Maximum/String : -31 dB
dialnorm_Count : 243
compr_Average : 5.66
compr_Average/String : 5.66 dB
compr_Minimum : 0.53
compr_Minimum/String : 0.53 dB
compr_Maximum : 6.02
compr_Maximum/String : 6.02 dB
compr_Count : 243
dynrng_Average : 5.64
dynrng_Average/String : 5.64 dB
dynrng_Minimum : 0.53
dynrng_Minimum/String : 0.53 dB
dynrng_Maximum : 5.88
dynrng_Maximum/String : 5.88 dB
dynrng_Count : 243
format_identifier : AC-3
Source : 00133.m2ts

Audio #22
ID : 4362 (0x110A)
Menu ID : 1 (0x1)
Format : AC-3
Format/Info : Audio Coding 3
Mode extension : CM (complete main)
Format settings, Endianness : Big
Codec ID : 129
Duration : 50mn 17s
Bit rate mode : Constant
Bit rate : 640 Kbps
Channel count : 6 channels
Channel positions : Front: L C R, Side: L R, LFE
Sampling rate : 48.0 KHz
Bit depth : 16 bits
Compression mode : Lossy
Stream size : 230 MiB (2%)
Language : Hebrew
bsid : 6
dialnorm : -31
dialnorm/String : -31 dB
compr : 0.53
compr/String : 0.53 dB
dynrng : 0.53
dynrng/String : 0.53 dB
acmod : 7
lfeon : 1
dialnorm_Average : -31
dialnorm_Average/String : -31 dB
dialnorm_Minimum : -31
dialnorm_Minimum/String : -31 dB
dialnorm_Maximum : -31
dialnorm_Maximum/String : -31 dB
dialnorm_Count : 243
compr_Average : 5.65
compr_Average/String : 5.65 dB
compr_Minimum : 0.53
compr_Minimum/String : 0.53 dB
compr_Maximum : 6.02
compr_Maximum/String : 6.02 dB
compr_Count : 243
dynrng_Average : 5.64
dynrng_Average/String : 5.64 dB
dynrng_Minimum : 0.53
dynrng_Minimum/String : 0.53 dB
dynrng_Maximum : 5.88
dynrng_Maximum/String : 5.88 dB
dynrng_Count : 243
format_identifier : AC-3
Source : 00133.m2ts

Text #1
ID : 4608 (0x1200)
Menu ID : 1 (0x1)
Format : PGS
Codec ID : 144
Duration : 58mn 17s
Language : English
Source : 00115.m2ts

Text #2
ID : 4609 (0x1201)
Menu ID : 1 (0x1)
Format : PGS
Codec ID : 144
Duration : 58mn 17s
Language : English
Source : 00115.m2ts

Text #3
ID : 4610 (0x1202)
Menu ID : 1 (0x1)
Format : PGS
Codec ID : 144
Duration : 58mn 17s
Language : Czech
Source : 00115.m2ts

Text #4
ID : 4611 (0x1203)
Menu ID : 1 (0x1)
Format : PGS
Codec ID : 144
Duration : 58mn 17s
Language : Hungarian
Source : 00115.m2ts

Text #5
ID : 4612 (0x1204)
Menu ID : 1 (0x1)
Format : PGS
Codec ID : 144
Duration : 58mn 17s
Language : Greek
Source : 00115.m2ts

Text #6
ID : 4613 (0x1205)
Menu ID : 1 (0x1)
Format : PGS
Codec ID : 144
Duration : 58mn 17s
Language : Russian
Source : 00115.m2ts

Text #7
ID : 4614 (0x1206)
Menu ID : 1 (0x1)
Format : PGS
Codec ID : 144
Duration : 58mn 17s
Language : Ukrainian
Source : 00115.m2ts

Text #8
ID : 4615 (0x1207)
Menu ID : 1 (0x1)
Format : PGS
Codec ID : 144
Duration : 58mn 17s
Language : Slovak
Source : 00115.m2ts

Text #9
ID : 4616 (0x1208)
Menu ID : 1 (0x1)
Format : PGS
Codec ID : 144
Duration : 58mn 17s
Language : Norwegian
Source : 00115.m2ts

Text #10
ID : 4617 (0x1209)
Menu ID : 1 (0x1)
Format : PGS
Codec ID : 144
Duration : 58mn 17s
Language : Danish
Source : 00115.m2ts

Text #11
ID : 4618 (0x120A)
Menu ID : 1 (0x1)
Format : PGS
Codec ID : 144
Duration : 58mn 17s
Language : Hebrew
Source : 00115.m2ts

Text #12
ID : 4619 (0x120B)
Menu ID : 1 (0x1)
Format : PGS
Codec ID : 144
Duration : 58mn 17s
Language : Lithuanian
Source : 00115.m2ts

Text #13
ID : 4620 (0x120C)
Menu ID : 1 (0x1)
Format : PGS
Codec ID : 144
Duration : 58mn 17s
Language : Estonian
Source : 00115.m2ts

Text #14
ID : 4621 (0x120D)
Menu ID : 1 (0x1)
Format : PGS
Codec ID : 144
Duration : 58mn 17s
Language : Bulgarian
Source : 00115.m2ts

Text #15
ID : 4622 (0x120E)
Menu ID : 1 (0x1)
Format : PGS
Codec ID : 144
Duration : 58mn 17s
Language : Romanian
Source : 00115.m2ts

Text #16
ID : 4623 (0x120F)
Menu ID : 1 (0x1)
Format : PGS
Codec ID : 144
Duration : 58mn 17s
Language : Latvian
Source : 00115.m2ts

Text #17
ID : 4624 (0x1210)
Menu ID : 1 (0x1)
Format : PGS
Codec ID : 144
Duration : 58mn 17s
Language : Serbian
Source : 00115.m2ts

Text #18
ID : 4625 (0x1211)
Menu ID : 1 (0x1)
Format : PGS
Codec ID : 144
Duration : 58mn 17s
Language : Croatian
Source : 00115.m2ts

Text #19
ID : 4626 (0x1212)
Menu ID : 1 (0x1)
Format : PGS
Codec ID : 144
Duration : 58mn 17s
Language : Slovenian
Source : 00115.m2ts

Text #20
ID : 4627 (0x1213)
Menu ID : 1 (0x1)
Format : PGS
Codec ID : 144
Duration : 58mn 17s
Language : Czech
Source : 00115.m2ts

Text #21
ID : 4628 (0x1214)
Menu ID : 1 (0x1)
Format : PGS
Codec ID : 144
Duration : 58mn 17s
Language : Hungarian
Source : 00115.m2ts

Text #22
ID : 4629 (0x1215)
Menu ID : 1 (0x1)
Format : PGS
Codec ID : 144
Duration : 58mn 17s
Language : Russian
Source : 00115.m2ts

Text #23
ID : 4630 (0x1216)
Menu ID : 1 (0x1)
Format : PGS
Codec ID : 144
Duration : 58mn 17s
Language : Ukrainian
Source : 00115.m2ts

Text #24
ID : 4631 (0x1217)
Menu ID : 1 (0x1)
Format : PGS
Codec ID : 144
Duration : 58mn 17s
Language : Slovak
Source : 00115.m2ts

Text #25
ID : 4632 (0x1218)
Menu ID : 1 (0x1)
Format : PGS
Codec ID : 144
Duration : 58mn 17s
Language : Norwegian
Source : 00115.m2ts

Text #26
ID : 4633 (0x1219)
Menu ID : 1 (0x1)
Format : PGS
Codec ID : 144
Duration : 58mn 17s
Language : Danish
Source : 00115.m2ts

Text #27
ID : 4634 (0x121A)
Menu ID : 1 (0x1)
Format : PGS
Codec ID : 144
Duration : 58mn 17s
Language : Hebrew
Source : 00115.m2ts

Text #28
ID : 4635 (0x121B)
Menu ID : 1 (0x1)
Format : PGS
Codec ID : 144
Duration : 58mn 17s
Language : Lithuanian
Source : 00115.m2ts

Text #29
ID : 4636 (0x121C)
Menu ID : 1 (0x1)
Format : PGS
Codec ID : 144
Duration : 58mn 17s
Language : Estonian
Source : 00115.m2ts

Text #30
ID : 4608 (0x1200)
Menu ID : 1 (0x1)
Format : PGS
Codec ID : 144
Duration : 50mn 17s
Delay relative to video : 5s 964ms
Language : English
Source : 00133.m2ts

Text #31
ID : 4609 (0x1201)
Menu ID : 1 (0x1)
Format : PGS
Codec ID : 144
Duration : 50mn 17s
Delay relative to video : 3s 3ms
Language : English
Source : 00133.m2ts

Text #32
ID : 4610 (0x1202)
Menu ID : 1 (0x1)
Format : PGS
Codec ID : 144
Duration : 50mn 17s
Delay relative to video : 6s 6ms
Language : Czech
Source : 00133.m2ts

Text #33
ID : 4611 (0x1203)
Menu ID : 1 (0x1)
Format : PGS
Codec ID : 144
Duration : 50mn 17s
Delay relative to video : 6s 6ms
Language : Hungarian
Source : 00133.m2ts

Text #34
ID : 4612 (0x1204)
Menu ID : 1 (0x1)
Format : PGS
Codec ID : 144
Duration : 50mn 17s
Delay relative to video : 6s 6ms
Language : Greek
Source : 00133.m2ts

Text #35
ID : 4613 (0x1205)
Menu ID : 1 (0x1)
Format : PGS
Codec ID : 144
Duration : 50mn 17s
Delay relative to video : 6s 6ms
Language : Russian
Source : 00133.m2ts

Text #36
ID : 4614 (0x1206)
Menu ID : 1 (0x1)
Format : PGS
Codec ID : 144
Duration : 50mn 17s
Delay relative to video : 6s 6ms
Language : Ukrainian
Source : 00133.m2ts

Text #37
ID : 4615 (0x1207)
Menu ID : 1 (0x1)
Format : PGS
Codec ID : 144
Duration : 50mn 17s
Delay relative to video : 6s 6ms
Language : Slovak
Source : 00133.m2ts

Text #38
ID : 4616 (0x1208)
Menu ID : 1 (0x1)
Format : PGS
Codec ID : 144
Duration : 50mn 17s
Delay relative to video : 6s 6ms
Language : Norwegian
Source : 00133.m2ts

Text #39
ID : 4617 (0x1209)
Menu ID : 1 (0x1)
Format : PGS
Codec ID : 144
Duration : 50mn 17s
Delay relative to video : 6s 6ms
Language : Danish
Source : 00133.m2ts

Text #40
ID : 4618 (0x120A)
Menu ID : 1 (0x1)
Format : PGS
Codec ID : 144
Duration : 50mn 17s
Delay relative to video : 6s 6ms
Language : Hebrew
Source : 00133.m2ts

Text #41
ID : 4619 (0x120B)
Menu ID : 1 (0x1)
Format : PGS
Codec ID : 144
Duration : 50mn 17s
Delay relative to video : 6s 6ms
Language : Lithuanian
Source : 00133.m2ts

Text #42
ID : 4620 (0x120C)
Menu ID : 1 (0x1)
Format : PGS
Codec ID : 144
Duration : 50mn 17s
Delay relative to video : 6s 6ms
Language : Estonian
Source : 00133.m2ts

Text #43
ID : 4621 (0x120D)
Menu ID : 1 (0x1)
Format : PGS
Codec ID : 144
Duration : 50mn 17s
Delay relative to video : 6s 6ms
Language : Bulgarian
Source : 00133.m2ts

Text #44
ID : 4622 (0x120E)
Menu ID : 1 (0x1)
Format : PGS
Codec ID : 144
Duration : 50mn 17s
Delay relative to video : 6s 6ms
Language : Romanian
Source : 00133.m2ts

Text #45
ID : 4623 (0x120F)
Menu ID : 1 (0x1)
Format : PGS
Codec ID : 144
Duration : 50mn 17s
Delay relative to video : 6s 6ms
Language : Latvian
Source : 00133.m2ts

Text #46
ID : 4624 (0x1210)
Menu ID : 1 (0x1)
Format : PGS
Codec ID : 144
Duration : 50mn 17s
Delay relative to video : 6s 6ms
Language : Serbian
Source : 00133.m2ts

Text #47
ID : 4625 (0x1211)
Menu ID : 1 (0x1)
Format : PGS
Codec ID : 144
Duration : 50mn 17s
Delay relative to video : 6s 6ms
Language : Croatian
Source : 00133.m2ts

Text #48
ID : 4626 (0x1212)
Menu ID : 1 (0x1)
Format : PGS
Codec ID : 144
Duration : 50mn 17s
Delay relative to video : 6s 6ms
Language : Slovenian
Source : 00133.m2ts

Text #49
ID : 4627 (0x1213)
Menu ID : 1 (0x1)
Format : PGS
Codec ID : 144
Duration : 50mn 17s
Language : Czech
Source : 00133.m2ts

Text #50
ID : 4628 (0x1214)
Menu ID : 1 (0x1)
Format : PGS
Codec ID : 144
Duration : 50mn 17s
Language : Hungarian
Source : 00133.m2ts

Text #51
ID : 4629 (0x1215)
Menu ID : 1 (0x1)
Format : PGS
Codec ID : 144
Duration : 50mn 17s
Language : Russian
Source : 00133.m2ts

Text #52
ID : 4630 (0x1216)
Menu ID : 1 (0x1)
Format : PGS
Codec ID : 144
Duration : 50mn 17s
Language : Ukrainian
Source : 00133.m2ts

Text #53
ID : 4631 (0x1217)
Menu ID : 1 (0x1)
Format : PGS
Codec ID : 144
Duration : 50mn 17s
Language : Slovak
Source : 00133.m2ts

Text #54
ID : 4632 (0x1218)
Menu ID : 1 (0x1)
Format : PGS
Codec ID : 144
Duration : 50mn 17s
Language : Norwegian
Source : 00133.m2ts

Text #55
ID : 4633 (0x1219)
Menu ID : 1 (0x1)
Format : PGS
Codec ID : 144
Duration : 50mn 17s
Language : Danish
Source : 00133.m2ts

Text #56
ID : 4634 (0x121A)
Menu ID : 1 (0x1)
Format : PGS
Codec ID : 144
Duration : 50mn 17s
Language : Hebrew
Source : 00133.m2ts

Text #57
ID : 4635 (0x121B)
Menu ID : 1 (0x1)
Format : PGS
Codec ID : 144
Duration : 50mn 17s
Language : Lithuanian
Source : 00133.m2ts

Text #58
ID : 4636 (0x121C)
Menu ID : 1 (0x1)
Format : PGS
Codec ID : 144
Duration : 50mn 17s
Language : Estonian
Source : 00133.m2ts

Menu
00:00:00.000 : Chapter 1
00:04:24.889 : Chapter 2
00:10:36.886 : Chapter 3
00:18:13.509 : Chapter 4
00:24:44.316 : Chapter 5
00:28:41.344 : Chapter 6
00:36:51.125 : Chapter 7
00:46:15.731 : Chapter 8
00:52:44.786 : Chapter 9
info [Профиль]  [ЛС] 

kradim76

Пол: Пол:Муж

Стаж: 5 лет

Сообщений: 2

Россия
Рейтинг

post 05-Дек-2013 01:34 (спустя 1 месяц 15 дней) [-]0[+]

[Цитировать] 

Дайте скорости пожалуйста!
info [Профиль]  [ЛС] 

Editor-in-Chief

Стаж: 7 лет 8 месяцев

Сообщений: 1279

Италия
Рейтинг

post 20-Авг-2014 08:57 (спустя 8 месяцев 15 дней) [-]0[+]

[Цитировать] 

почему-то скачался только 1 ч и всё
info [Профиль]  [ЛС] 

qptorrent

Пол: Пол:Муж

Стаж: 6 лет 11 месяцев

Сообщений: 4

Россия
Рейтинг

post 03-Окт-2014 05:45 (спустя 1 месяц 13 дней) [-]0[+]

[Цитировать] 

Я не нашел в раздаче 3D. нету или не там искал?
info [Профиль]  [ЛС] 
Показать сообщения:    
Ответить на тему

Текущее время: 10-Дек 16:51

Часовой пояс: GMT + 4



Вы не можете начинать темы
Вы не можете отвечать на сообщения
Вы не можете редактировать свои сообщения
Вы не можете удалять свои сообщения
Вы не можете голосовать в опросах
Вы не можете прикреплять файлы к сообщениям
Вы не можете скачивать файлы