Ошибка

До окончания фрилича осталось:


Гадкий я 2 / Despicable Me 2 (Пьер Соффин, Крис Рено) [2013 г., мультфильм, фантастика, комедия, криминал, приключения, семейный, BDRemux 1080p]

Ответить на тему
 
Автор Сообщение

Basketballman

Пол: Пол:Муж

Стаж: 7 лет 1 месяц

Сообщений: 280

Россия
Рейтинг

post 20-Окт-2013 06:14 0[+]

[Цитировать] 

Гадкий я 2 / Despicable Me 2

Год выпуска: 2013
Страна: США
Жанр: мультфильм, фантастика, комедия, криминал, приключения, семейный
Продолжительность: 01:37:58
Перевод: профессиональный (полное дублирование) [лицензия]
Режиссер:
  • Пьер Соффин, Крис Рено
В ролях:
  • Стив Карелл, Кен Жонг, Кристен Уиг, Миранда Косгров, Мойзес Ариас, Бенджамин Брэтт, Стив Куган, Расселл Брэнд, Элси Фишер, Дэна Гайер

Описание: В то время как Грю, бывший суперзлодей, приспосабливается к семейной жизни и пытается честным трудом зарабатывать в сфере бизнеса, тайные лаборатории Арктики оказываются украденными. Анти-Злодейская лига решает, что она нуждается в помощи Грю и его новобранцев в расследовании.


Качество: BD-Remux 1080p
Формат: MKV
Видео кодек: MPEG-4
Аудио кодек: AC3, DTS-HD
Видео: 1920x1080, 23.976 fps, 30.0 Mбит/с
Аудио: 1) Russian: DTS, 6 ch, 768 Kbps / AC3, 6 ch, 448 Kbps
2) English: DTS-HD MA, 6 ch, 3768 Kbps
Субтитры: русские, английские

Sample
General
Unique ID : 221478898783875815638869888480257194742 (0xA69F48C94FE069D0A1338B5111873AF6)
Complete name : C:\Кино\Despicable.Me.2.2013.Blu-rayRemux1080p.mkv
Format : Matroska
Format version : Version 2
File size : 23.7 GiB
Duration : 1h 37mn
Overall bit rate mode : Variable
Overall bit rate : 34.7 Mbps
Movie name : Despicable.Me.2.2013.Blu-ray.720p.x264-NiP
Encoded date : UTC 2013-10-19 13:17:36
Writing application : mkvmerge v6.3.0 ('You can't stop me!') built on Jun 28 2013 20:09:41
Writing library : libebml v1.3.0 + libmatroska v1.4.0

Video
ID : 1
Format : AVC
Format/Info : Advanced Video Codec
Format profile : High@L4.1
Format settings, CABAC : Yes
Format settings, ReFrames : 4 frames
Codec ID : V_MPEG4/ISO/AVC
Duration : 1h 37mn
Bit rate mode : Variable
Maximum bit rate : 32.0 Mbps
Width : 1 920 pixels
Height : 1 080 pixels
Display aspect ratio : 16:9
Frame rate mode : Constant
Frame rate : 23.976 fps
Color space : YUV
Chroma subsampling : 4:2:0
Bit depth : 8 bits
Scan type : Progressive
Language : English
Default : Yes
Forced : No

Audio #1
ID : 2
Format : DTS
Format/Info : Digital Theater Systems
Mode : 16
Format settings, Endianness : Big
Codec ID : A_DTS
Duration : 1h 37mn
Bit rate mode : Constant
Bit rate : 768 Kbps
Channel count : 6 channels
Channel positions : Front: L C R, Side: L R, LFE
Sampling rate : 48.0 KHz
Bit depth : 24 bits
Compression mode : Lossy
Stream size : 538 MiB (2%)
Language : Russian
Default : Yes
Forced : No

Audio #2
ID : 3
Format : AC-3
Format/Info : Audio Coding 3
Mode extension : CM (complete main)
Format settings, Endianness : Big
Codec ID : A_AC3
Duration : 1h 37mn
Bit rate mode : Constant
Bit rate : 448 Kbps
Channel count : 6 channels
Channel positions : Front: L C R, Side: L R, LFE
Sampling rate : 48.0 KHz
Bit depth : 16 bits
Compression mode : Lossy
Stream size : 314 MiB (1%)
Default : No
Forced : No

Audio #3
ID : 4
Format : DTS
Format/Info : Digital Theater Systems
Format profile : MA / Core
Mode : 16
Format settings, Endianness : Big
Codec ID : A_DTS
Duration : 1h 37mn
Bit rate mode : Variable
Bit rate : Unknown / 1 509 Kbps
Channel count : 6 channels
Channel positions : Front: L C R, Side: L R, LFE
Sampling rate : 48.0 KHz
Bit depth : 24 bits
Compression mode : Lossless / Lossy
Language : English
Default : No
Forced : No

Text #1
ID : 5
Format : UTF-8
Codec ID : S_TEXT/UTF8
Codec ID/Info : UTF-8 Plain Text
Title : Forced
Language : Russian
Default : Yes
Forced : No

Text #2
ID : 6
Format : UTF-8
Codec ID : S_TEXT/UTF8
Codec ID/Info : UTF-8 Plain Text
Language : Russian
Default : No
Forced : No

Text #3
ID : 7
Format : UTF-8
Codec ID : S_TEXT/UTF8
Codec ID/Info : UTF-8 Plain Text
Language : English
Default : No
Forced : No

Menu
00:00:00.000 : en:Chapter 1
00:03:22.994 : en:Chapter 2
00:08:04.734 : en:Chapter 3
00:15:50.867 : en:Chapter 4
00:18:28.232 : en:Chapter 5
00:24:36.892 : en:Chapter 6
00:30:50.724 : en:Chapter 7
00:34:40.704 : en:Chapter 8
00:40:48.279 : en:Chapter 9
00:46:26.200 : en:Chapter 10
00:51:23.122 : en:Chapter 11
00:56:27.426 : en:Chapter 12
01:00:00.472 : en:Chapter 13
01:03:27.053 : en:Chapter 14
01:08:44.078 : en:Chapter 15
01:14:01.979 : en:Chapter 16
01:18:08.058 : en:Chapter 17
01:22:33.907 : en:Chapter 18
01:27:09.099 : en:Chapter 19
01:30:33.720 : en:Chapter 20
info [Профиль]  [ЛС] 

alexyskrab

Пол: Пол:Муж

Стаж: 3 года 2 месяца

Сообщений: 3

Россия
Рейтинг

post 20-Окт-2013 22:13 (спустя 15 часов) [-]2[+]

[Цитировать] 

Ура,качество видео и звука на высоте,спасибо!!!! kolob_116 az
info [Профиль]  [ЛС] 

imp21h

Стаж: 3 года 5 месяцев

Сообщений: 1

Рейтинг

post 20-Окт-2013 22:36 (спустя 23 минуты) [-]0[+]

[Цитировать] 

Спасибо!
info [Профиль]  [ЛС] 

nester05

Пол: Пол:Муж

Стаж: 6 лет 11 месяцев

Сообщений: 60

Предупреждений: 1

Россия
Рейтинг

post 21-Окт-2013 11:20 (спустя 12 часов) [-]-3[+]

[Цитировать] 

а можно в контенере и образом исо?
info [Профиль]  [ЛС] 

wypeee

Пол: Пол:Муж

Стаж: 4 года 7 месяцев

Сообщений: 288

Предупреждений: 4

Рейтинг

post 22-Окт-2013 08:44 (спустя 21 час) [-]1[+]

[Цитировать] 

Ничуть не хуже первой части, классный мульт!
info [Профиль]  [ЛС] 

Sveeta

Пол: Пол:Жен

Стаж: 3 года 6 месяцев

Сообщений: 3

Россия
Рейтинг

post 22-Окт-2013 22:30 (спустя 13 часов) [-]1[+]

[Цитировать] 

Спасибо, мультик классный ! Есть над чем посмеяться и детям и взрослым !

_________________
info [Профиль]  [ЛС] 

Genial

Пол: Пол:Муж

Стаж: 3 года 10 месяцев

Сообщений: 63

Россия
Рейтинг

post 22-Окт-2013 22:41 (спустя 10 минут) [-]0[+]

[Цитировать] 

Согласен мультфильм хороший.
Качество и звук тоже хорошее.
Благодарю.

_________________
info [Профиль]  [ЛС] 

AntRey

Пол: Пол:Муж

Стаж: 4 года 1 месяц

Сообщений: 19

Канада
Рейтинг

post 23-Окт-2013 09:44 (спустя 11 часов) [-]0[+]

[Цитировать] 

Спасибо!
А вот бы еще немецкую дорожку и сабы...
info [Профиль]  [ЛС] 

Ян

Пол: Пол:Муж

Стаж: 5 лет 2 месяца

Сообщений: 330

Россия
Рейтинг

post 10-Ноя-2013 13:34 (спустя 18 дней) [-]1[+]

[Цитировать] 

Мультик классный и для детей и для взрослых!

_________________
info [Профиль]  [ЛС] 
Показать сообщения:    
Ответить на тему

Текущее время: 10-Дек 08:57

Часовой пояс: GMT + 4



Вы не можете начинать темы
Вы не можете отвечать на сообщения
Вы не можете редактировать свои сообщения
Вы не можете удалять свои сообщения
Вы не можете голосовать в опросах
Вы не можете прикреплять файлы к сообщениям
Вы не можете скачивать файлы