Ошибка

Гадкий я 2 / Despicable Me 2 (Пьер Соффин, Крис Рено) [2013, мультфильм, фантастика, комедия, криминал, приключения, семейный, HDRip]

Ответить на тему
 
Автор Сообщение

koss555

Пол: Пол:Муж

Стаж: 4 года 11 месяцев

Сообщений: 1549

Россия
Рейтинг

post 19-Окт-2013 19:11 2[+]

[Цитировать] 

Гадкий я 2 / Despicable Me 2
«More minions. More despicable»

Год выпуска: 2013
Страна: США
Жанр: мультфильм, фантастика, комедия, криминал, приключения, семейный
Продолжительность: 01:37:58
Перевод: Дублированный [Лицензия]

Режиссер: Пьер Соффин, Крис Рено
Сценарий: Кен Даурио, Синко Пол
Продюсер: Джанет Хили, Кристофер Меледандри
Композитор: Эйтор Перейра, Фаррелл Уильямс
Художник: Ярроу Чейни, Эрик Гуильон
Монтаж: Грегори Перлер

В ролях: Стив Карелл / Steve Carell (Gru, озвучка), Кристен Уиг / Kristen Wiig (Lucy, озвучка), Бенджамин Брэтт / Benjamin Bratt (Eduardo, El Macho, озвучка), Миранда Косгров / Miranda Cosgrove (Margo, озвучка), Расселл Брэнд / Russell Brand (Dr. Nefario, озвучка), Кен Жонг / Ken Jeong (Floyd, озвучка), Стив Куган / Steve Coogan (Silas, озвучка), Элси Фишер / Elsie Fisher (Agnes, озвучка)


Описание: В то время как Грю, бывший суперзлодей, приспосабливается к семейной жизни и пытается честным трудом зарабатывать в сфере бизнеса, тайные лаборатории Арктики оказываются украденными. Анти-Злодейская лига решает, что она нуждается в помощи Грю и его новобранцев в расследовании.

Бюджет: $76 000 000
Сборы в США: $363 255 230
Сборы в мире: + $522 100 000 = $885 355 230 сборы
Сборы в России: $34 740 651
Зрители: Мексика 13.3 млн , Бразилия 6.95 млн , Россия 5.37 млн
Премьера (мир): 16 июня 2013
Премьера (РФ): 15 августа 2013, «UPI» 3D
Релиз на DVD: 31 октября 2013 «Двадцатый Век Фокс СНГ»
Релиз на Blu-Ray: 31 октября 2013 «Двадцатый Век Фокс СНГ»
Рейтинг MPAA: Рекомендуется присутствие родителей



Качество: HDRip
Формат: AVI
Видео кодек: XviD
Аудио кодеk: AC3
Видео: 720x384 (1.875:1), 23.976 fps, XviD, 1 540 Kbps
Аудио: Аудио #1: AC3, 448 Kbps, 48.0 KHz, 6 ch


Сэмпл: http://multi-up.com/914767
· Все голоса миньонов в оригинальной озвучке принадлежат режиссерам картины — Пьеру Соффину и Крису Рено.

· Вместо Леонида Ярмольника, который озвучивал Грю в первой части мультфильма, голос в русском дубляже достался Сергею Бурунову.

· В моменте битвы Грю с курицей в ресторане Эль Мачо есть отсылка к фильму «Чужой», когда курица вырывается через свитер Грю через грудь.

· Финальная песня миньонов в российском прокате содержит слово «труселя», а в украинском — «у трусах».

General
Complete name : C:\Users\koss\Desktop\кино\Despicable.me.2.2013.D.HDRip.1400MB.avi
Format : AVI
Format/Info : Audio Video Interleave
File size : 1.37 GiB
Duration : 1h 37mn
Overall bit rate : 1 997 Kbps
Writing application : VirtualDubMod 1.5.10.2 (build 2540/release)
Writing library : VirtualDubMod build 2540/release

Video
ID : 0
Format : MPEG-4 Visual
Format profile : Advanced Simple@L5
Format settings, BVOP : 2
Format settings, QPel : No
Format settings, GMC : No warppoints
Format settings, Matrix : Default (MPEG)
Codec ID : XVID
Codec ID/Hint : XviD
Duration : 1h 37mn
Bit rate : 1 540 Kbps
Width : 720 pixels
Height : 384 pixels
Display aspect ratio : 1.85:1
Frame rate : 23.976 fps
Color space : YUV
Chroma subsampling : 4:2:0
Bit depth : 8 bits
Scan type : Progressive
Compression mode : Lossy
Bits/(Pixel*Frame) : 0.232
Stream size : 1.05 GiB (77%)
Writing library : XviD 1.2.1 (UTC 2008-12-04)

Audio
ID : 1
Format : AC-3
Format/Info : Audio Coding 3
Mode extension : CM (complete main)
Format settings, Endianness : Big
Codec ID : 2000
Duration : 1h 37mn
Bit rate mode : Constant
Bit rate : 448 Kbps
Channel(s) : 6 channels
Channel positions : Front: L C R, Side: L R, LFE
Sampling rate : 48.0 KHz
Bit depth : 16 bits
Compression mode : Lossy
Stream size : 314 MiB (22%)
Alignment : Split accross interleaves
Interleave, duration : 42 ms (1.00 video frame)
Interleave, preload duration : 500 ms
info [Профиль]  [ЛС] 

post 19-Окт-2013 19:11 (спустя 31 секунда) [-]0[+]

Топик был перенесен из форума Оформление раздач (Кинематограф) в форум Rips

koss555
 

dremk1n

Пол: Пол:Муж

Стаж: 6 лет 6 месяцев

Сообщений: 129

Россия
Рейтинг

post 19-Окт-2013 19:24 (спустя 13 минут) [-]0[+]

[Цитировать] 

Буду первым Улыбаюсь
Мульт сыну понравился, а вот мне что-то не очень !

_________________
info [Профиль]  [ЛС] 

L

Пол: Пол:Муж

Стаж: 6 лет 7 месяцев

Сообщений: 10811

Украина
Рейтинг

post 19-Окт-2013 20:28 (спустя 1 час 3 минуты) [-]0[+]

[Цитировать] 

koss555

Об оформлении раздач:
Добавьте:
  • Отчет Медиаинфо
  • Сэмпл

_________________
info [Профиль]  [ЛС] 

koss555

Пол: Пол:Муж

Стаж: 4 года 11 месяцев

Сообщений: 1549

Россия
Рейтинг

post 19-Окт-2013 20:54 (спустя 25 минут) [-]0[+]

[Цитировать] 

сэмпл добавил в раздачу

_________________
info [Профиль]  [ЛС] 

post 11-Янв-2014 22:38 (спустя 2 месяца 23 дня) [-]0[+]

Топик был перенесен из форума Rips в форум Зарубежные полнометражные мультфильмы

L
 
Показать сообщения:    
Ответить на тему

Текущее время: 07-Дек 14:44

Часовой пояс: GMT + 4



Вы не можете начинать темы
Вы не можете отвечать на сообщения
Вы не можете редактировать свои сообщения
Вы не можете удалять свои сообщения
Вы не можете голосовать в опросах
Вы не можете прикреплять файлы к сообщениям
Вы не можете скачивать файлы