Ошибка

Железный человек 3 / Iron man 3 (Шейн Блэк) [2013 г., фантастика, боевик, приключения, BDRemux 1080p]

Ответить на тему
 
Автор Сообщение

Basketballman

Пол: Пол:Муж

Стаж: 7 лет 1 месяц

Сообщений: 280

Россия
Рейтинг

post 08-Окт-2013 18:06 0[+]

[Цитировать] 

Железный человек 3 / Iron Man 3

Год выпуска: 2013
Страна: США, Китай
Жанр: фантастика, боевик, приключения
Продолжительность: 02:10:32
Перевод: профессиональный (полное дублирование)
Режиссер:
  • Шейн Блэк
В ролях:
  • Роберт Дауни мл., Гвинет Пэлтроу, Дон Чидл, Гай Пирс, Бен Кингсли, Ребекка Холл, Пол Беттани, Джон Фавро, Уильям Сэдлер, Джеймс Бэдж Дэйл

Описание: Когда мир Старка рушится на его глазах по вине неизвестных противников, Тони жаждет найти виновных и свести с ними счеты. Оказавшись в безвыходной ситуации, Старк может рассчитывать только на себя и свою изобретательность, чтобы защитить тех, кто ему дорог. Это становится настоящим испытанием для героя, которому придется не только сражаться с коварным врагом, но и разобраться в себе, чтобы найти ответ на вопрос, который давно его тревожит: что важнее — человек или костюм?

Качество: BD-Remux 1080p
Формат: BDMV
Видео кодек: MPEG-4
Аудио кодек: AC3, DTS-HD
Видео: 1920x1080, 23.976 fps, 24.0 Mбит/с
Аудио: 1) Russian: DTS-HD MA, 6 ch, 3897 Kbps
1) English: DTS-HD MA, 8 ch, 4845 Kbps
3) Ukrainian: AC3, 2 ch, 192 Kbps
Субтитры: русские, английские, украинские

Sample
General
ID : 1 (0x1)
Complete name : C:\Кино\IRON_MAN_3_2013_REMUX_HDCLUB\BDMV\STREAM\00000.m2ts
Format : BDAV
Format/Info : Blu-ray Video
File size : 33.1 GiB
Duration : 2h 10mn
Overall bit rate mode : Variable
Overall bit rate : 36.3 Mbps
Maximum Overall bit rate : 35.5 Mbps

Video
ID : 4113 (0x1011)
Menu ID : 1 (0x1)
Format : AVC
Format/Info : Advanced Video Codec
Format profile : High@L4.1
Format settings, CABAC : Yes
Format settings, ReFrames : 4 frames
Codec ID : 27
Duration : 2h 10mn
Bit rate mode : Variable
Maximum bit rate : 30.0 Mbps
Width : 1 920 pixels
Height : 1 080 pixels
Display aspect ratio : 16:9
Frame rate : 23.976 fps
Color space : YUV
Chroma subsampling : 4:2:0
Bit depth : 8 bits
Scan type : Progressive

Audio #1
ID : 4352 (0x1100)
Menu ID : 1 (0x1)
Format : DTS
Format/Info : Digital Theater Systems
Format profile : MA / Core
Mode : 16
Format settings, Endianness : Big
Muxing mode : Stream extension
Codec ID : 134
Duration : 2h 10mn
Bit rate mode : Variable
Bit rate : Unknown / 1 509 Kbps
Channel count : 6 channels
Channel positions : Front: L C R, Side: L R, LFE
Sampling rate : 48.0 KHz
Bit depth : 24 bits
Compression mode : Lossless / Lossy
Language : Russian

Audio #2
ID : 4353 (0x1101)
Menu ID : 1 (0x1)
Format : AC-3
Format/Info : Audio Coding 3
Mode extension : CM (complete main)
Format settings, Endianness : Big
Codec ID : 129
Duration : 2h 10mn
Bit rate mode : Constant
Bit rate : 192 Kbps
Channel count : 2 channels
Channel positions : Front: L R
Sampling rate : 48.0 KHz
Bit depth : 16 bits
Compression mode : Lossy
Stream size : 179 MiB (1%)
Language : Ukrainian

Audio #3
ID : 4354 (0x1102)
Menu ID : 1 (0x1)
Format : DTS
Format/Info : Digital Theater Systems
Format profile : MA / Core
Mode : 16
Format settings, Endianness : Big
Muxing mode : Stream extension
Codec ID : 134
Duration : 2h 10mn
Bit rate mode : Variable
Bit rate : Unknown / 1 509 Kbps
Channel count : 8 channels / 6 channels
Channel positions : Front: L C R, Side: L R, Back: L R, LFE / Front: L C R, Side: L R, LFE
Sampling rate : 48.0 KHz
Bit depth : 24 bits
Compression mode : Lossless / Lossy
Language : English

Audio #4
ID : 4355 (0x1103)
Menu ID : 1 (0x1)
Format : AC-3
Format/Info : Audio Coding 3
Format profile : Dolby Digital
Mode extension : CM (complete main)
Format settings, Endianness : Big
Codec ID : 129
Duration : 2h 10mn
Bit rate mode : Constant
Bit rate : 320 Kbps
Channel count : 2 channels
Channel positions : Front: L R
Sampling rate : 48.0 KHz
Bit depth : 16 bits
Compression mode : Lossy
Stream size : 299 MiB (1%)
Language : English

Audio #5
ID : 4356 (0x1104)
Menu ID : 1 (0x1)
Format : AC-3
Format/Info : Audio Coding 3
Mode extension : CM (complete main)
Format settings, Endianness : Big
Codec ID : 129
Duration : 2h 10mn
Bit rate mode : Constant
Bit rate : 192 Kbps
Channel count : 2 channels
Channel positions : Front: L R
Sampling rate : 48.0 KHz
Bit depth : 16 bits
Compression mode : Lossy
Stream size : 179 MiB (1%)
Language : English

Text #1
ID : 4608 (0x1200)
Menu ID : 1 (0x1)
Format : PGS
Codec ID : 144
Delay relative to video : 7s 925ms
Language : English

Text #2
ID : 4609 (0x1201)
Menu ID : 1 (0x1)
Format : PGS
Codec ID : 144
Delay relative to video : 7s 925ms
Language : English

Text #3
ID : 4610 (0x1202)
Menu ID : 1 (0x1)
Format : PGS
Codec ID : 144
Delay relative to video : 7s 716ms
Language : French

Text #4
ID : 4611 (0x1203)
Menu ID : 1 (0x1)
Format : PGS
Codec ID : 144
Delay relative to video : 7s 549ms
Language : Dutch

Text #5
ID : 4612 (0x1204)
Menu ID : 1 (0x1)
Format : PGS
Codec ID : 144
Delay relative to video : 7s 716ms
Language : Greek

Text #6
ID : 4613 (0x1205)
Menu ID : 1 (0x1)
Format : PGS
Codec ID : 144
Delay relative to video : 7s 758ms
Language : Arabic

Text #7
ID : 4614 (0x1206)
Menu ID : 1 (0x1)
Format : PGS
Codec ID : 144
Delay relative to video : 7s 925ms
Language : Russian

Text #8
ID : 4615 (0x1207)
Menu ID : 1 (0x1)
Format : PGS
Codec ID : 144
Delay relative to video : 7s 925ms
Language : Ukrainian

Text #9
ID : 4616 (0x1208)
Menu ID : 1 (0x1)
Format : PGS
Codec ID : 144
Delay relative to video : 7s 716ms
Language : Bulgarian

Text #10
ID : 4617 (0x1209)
Menu ID : 1 (0x1)
Format : PGS
Codec ID : 144
Delay relative to video : 7s 925ms
Language : Latvian

Text #11
ID : 4618 (0x120A)
Menu ID : 1 (0x1)
Format : PGS
Codec ID : 144
Delay relative to video : 7s 716ms
Language : Lithuanian

Text #12
ID : 4619 (0x120B)
Menu ID : 1 (0x1)
Format : PGS
Codec ID : 144
Delay relative to video : 7s 925ms
Language : Estonian

Text #13
ID : 4620 (0x120C)
Menu ID : 1 (0x1)
Format : PGS
Codec ID : 144
Delay relative to video : 7s 925ms
Language : French

Text #14
ID : 4621 (0x120D)
Menu ID : 1 (0x1)
Format : PGS
Codec ID : 144
Delay relative to video : 7s 716ms
Language : Dutch

Text #15
ID : 4622 (0x120E)
Menu ID : 1 (0x1)
Format : PGS
Codec ID : 144
Delay relative to video : 7s 925ms
Language : Russian

Text #16
ID : 4623 (0x120F)
Menu ID : 1 (0x1)
Format : PGS
Codec ID : 144
Language : French

Text #17
ID : 4624 (0x1210)
Menu ID : 1 (0x1)
Format : PGS
Codec ID : 144
Language : Dutch

Text #18
ID : 4625 (0x1211)
Menu ID : 1 (0x1)
Format : PGS
Codec ID : 144
Language : Russian
info [Профиль]  [ЛС] 

L

Пол: Пол:Муж

Стаж: 6 лет 8 месяцев

Сообщений: 10837

Украина
Рейтинг

post 08-Окт-2013 20:31 (спустя 2 часа 25 минут) [-]0[+]

[Цитировать] 

Добавьте сэмпл и МИ.

_________________
info [Профиль]  [ЛС] 

Valington

Пол: Пол:Муж

Стаж: 7 лет 3 месяца

Сообщений: 527

Исландия
Рейтинг

post 09-Окт-2013 21:01 (спустя 1 день) [-]1[+]

[Цитировать] 

имхо...самый скучный фильм из серии.

_________________
Win 10 Pro 64x, intel i5-3470 3.20GHz, 8GB RAM, Ati Radeon HD 6950 2GB + CrossFire Ati Radeon HD 6950 1GB (8х\8х)
info [Профиль]  [ЛС] 

Semikonduktor

Стаж: 7 лет 3 месяца

Сообщений: 294

Предупреждений: 2

Россия
Рейтинг

post 09-Окт-2013 21:05 (спустя 4 минуты) [-]0[+]

[Цитировать] 

эххх... былоб это все в mkv kolob_102

_________________
на все воля Аллаха
info [Профиль]  [ЛС] 

DietrichH

Пол: Пол:Муж

Стаж: 7 лет 5 месяцев

Сообщений: 953

Казахстан
Рейтинг

post 10-Окт-2013 18:07 (спустя 21 час) [-]0[+]

[Цитировать] 

Semikonduktor писал(а):

эххх... былоб это все в mkv kolob_102
чтоб здох этот файл

_________________
info [Профиль]  [ЛС] 

Semikonduktor

Стаж: 7 лет 3 месяца

Сообщений: 294

Предупреждений: 2

Россия
Рейтинг

post 10-Окт-2013 23:23 (спустя 5 часов) [-]0[+]

[Цитировать] 

DietrichH писал(а):

Semikonduktor писал(а):

эххх... былоб это все в mkv kolob_102
чтоб здох этот файл
просвети пожалуйста?

_________________
на все воля Аллаха
info [Профиль]  [ЛС] 
Показать сообщения:    
Ответить на тему

Текущее время: 09-Дек 19:33

Часовой пояс: GMT + 4



Вы не можете начинать темы
Вы не можете отвечать на сообщения
Вы не можете редактировать свои сообщения
Вы не можете удалять свои сообщения
Вы не можете голосовать в опросах
Вы не можете прикреплять файлы к сообщениям
Вы не можете скачивать файлы