Ошибка

Вторжение Титанов | Attack on Titan | Shingeki no Kyojin [TV][1-25 из 25][2013][приключения][HDTVRip][720p][Любительский]

Ответить на тему
 
Автор Сообщение

NOKIAFBR

Пол: Пол:Муж

Стаж: 4 года 1 месяц

Сообщений: 24

Рейтинг

post 08-Окт-2013 10:04 6[+]

[Цитировать] 


Вторжение Гигантов | Атака Титанов
Attack on Titan | Shingeki no Kyojin

Страна: Япония
Год выпуска: 2013 г.
Жанр: Приключения, ужасы, фентези
Тип: TV
Продолжительность: 25 мин. серия
Перевод:
Озвучка: Многоголосая, закадровая от студии - [Kansai]
Режиссер: Араки Тэцуро
Студия: WIT
Описание:
Они говорили нам, что здесь безопасно, что нам больше не нужно бояться. Они лгали нам. Сто лет бездействия сделали нас беспомощными.
Сможем ли мы вспомнить, кто мы есть на самом деле? Сможем ли взять ответственность за будущее в свои руки? Что сможем противопоставить Их силе? Их жестокости, их голоду... Будем ли мы когда-нибудь свободны?
Информационные ссылки: World Art | AniDB | MyAnimeList
Качество: HDTVRip
Тип видео: Без хардсаба
Формат видео: MP4
Видео: h264 | 1280x720 | 2 381 Kbps | 23.976 fps
Аудио: AAC | 360 kbps | 48Khz | 2ch
http://tapochek.net/viewtopic.php?t=130521 - наличие всех серий
http://tapochek.net/viewtopic.php?t=131817 - наличие всех серий
  • 01. К тебе. 2000 лет спустя.
  • 02. В этот день, пала Сигансия.
  • 03. Возрождение человечества. Часть I. Тусклый лучик надежды в пучине отчаяния.
  • 04. Возрождение человечества. Часть II. Ночь распределения.
  • 05. Первая битва. Защита Троста. Часть I.
  • 06. Мир что она лицезрела. Защита Троста. Часть II.
  • 07. Короткий Клинок. Защита Троста. Часть III.
  • 08. Я слышу сердцебиение. Защита Троста. Часть IV.
  • 09. Куда делась левая рука?. Защита Троста. Часть V.
  • 10. Ответ. Защита Троста. Часть VI.
  • 11. Идол. Защита Троста. Часть VII.
  • 12. Рана. Защита Троста. Часть VIII.
  • 13. Первобытное желание. Защита Троста. Часть IX.
  • 13,5. С того дня.
  • 14. Не могу смотреть ему в глаза. Прелюдия к контратаке. Часть I.
  • 15. Отряд специального назначения. Прелюдия к контратаке. Часть II.
  • 16. Что делать дальше? Прелюдия к контратаке. Часть III.
  • 17. Титан женского пола.
  • 18. Лес гигантских деревьев.
  • 19. Укус.
  • 20. Эрвин Смит.
  • 21. Сокрушающий Удар.
  • 22. Побеждённые.
  • 23. Улыбка.
  • 24. Сожаление.
  • 25. Стена.

Код:

Format                         : MPEG-4
 Format profile                 : Base Media
 Codec ID                       : isom
 File size                      : 473 MiB
 Duration                       : 24mn 6s
 Overall bit rate mode          : Variable
 Overall bit rate               : 2 745 Kbps
 Encoded date                   : UTC 2013-04-06 12:17:42
 Tagged date                    : UTC 2013-04-06 12:17:42
 Writing application            : Yamb 2.1.0.0 [http://yamb.unite-video.com]

 Video
 ID                             : 1
 Format                         : AVC
 Format/Info                    : Advanced Video Codec
 Format profile                 : High@L3.1
 Format settings, CABAC         : Yes
 Format settings, ReFrames      : 4 frames
 Codec ID                       : avc1
 Codec ID/Info                  : Advanced Video Coding
 Duration                       : 24mn 6s
 Bit rate                       : 2 381 Kbps
 Maximum bit rate               : 17.9 Mbps
 Width                          : 1 280 pixels
 Height                         : 720 pixels
 Display aspect ratio           : 16:9
 Frame rate mode                : Constant
 Frame rate                     : 23.976 fps
 Color space                    : YUV
 Chroma subsampling             : 4:2:0
 Bit depth                      : 8 bits
 Scan type                      : Progressive
 Bits/(Pixel*Frame)             : 0.108
 Stream size                    : 411 MiB (87%)
 Writing library                : x264 core 128 r2216+698 b3c1019
 Encoding settings              : cabac=1 / ref=3 / deblock=1:0:0 / analyse=0x3:0x113 / me=hex / subme=7 / psy=1 / fade_compensate=0.00 / psy_rd=1.00:0.00 / mixed_ref=1 / me_range=16 / chroma_me=1 / trellis=1 / 8x8dct=1 / cqm=0 / deadzone=21,11 / fast_pskip=1 / chroma_qp_offset=-2 / threads=12 / lookahead_threads=2 / sliced_threads=0 / nr=0 / decimate=1 / interlaced=0 / bluray_compat=0 / constrained_intra=0 / fgo=0 / bframes=3 / b_pyramid=2 / b_adapt=1 / b_bias=0 / direct=1 / weightb=1 / open_gop=0 / weightp=2 / keyint=250 / keyint_min=23 / scenecut=40 / intra_refresh=0 / rc_lookahead=40 / rc=crf / mbtree=1 / crf=19.5000 / qcomp=0.60 / qpmin=0 / qpmax=69 / qpstep=4 / ip_ratio=1.40 / aq=1:1.00
 Encoded date                   : UTC 2013-04-06 19:41:54
 Tagged date                    : UTC 2013-04-06 12:17:43

 Audio
 ID                             : 2
 Format                         : AAC
 Format/Info                    : Advanced Audio Codec
 Format profile                 : LC
 Codec ID                       : 40
 Duration                       : 24mn 6s
 Bit rate mode                  : Variable
 Bit rate                       : 360 Kbps
 Maximum bit rate               : 369 Kbps
 Channel(s)                     : 2 channels
 Channel positions              : Front: L R
 Sampling rate                  : 48.0 KHz
 Compression mode               : Lossy
 Delay relative to video        : 83ms
 Stream size                    : 62.1 MiB (13%)
 Title                          : Kansai
 Language                       : Russian
 Encoded date                   : UTC 2013-04-06 12:17:42
 Tagged date                    : UTC 2013-04-06 12:17:43
info [Профиль]  [ЛС] 

precentor frost

Пол: Пол:Муж

Стаж: 7 лет 8 месяцев

Сообщений: 669

Рейтинг

post 08-Окт-2013 16:38 (спустя 6 часов) [-]1[+]

[Цитировать] 

укажите отличия от:
http://tapochek.net/viewtopic.php?t=130521
http://tapochek.net/viewtopic.php?t=131817

скриншоты должны быть превьюшками

_________________
Cилы добра, света и справедливости - это три совершенно разные фракции.
info [Профиль]  [ЛС] 

NOKIAFBR

Пол: Пол:Муж

Стаж: 4 года 1 месяц

Сообщений: 24

Рейтинг

post 08-Окт-2013 16:56 (спустя 17 минут) [-]0[+]

[Цитировать] 

precentor frost готово)
info [Профиль]  [ЛС] 

xwest

Пол: Пол:Муж

Стаж: 7 лет 3 месяца

Сообщений: 40

Япония
Рейтинг

post 08-Окт-2013 18:04 (спустя 1 час 8 минут) [-]1[+]

[Цитировать] 

Спс офигенное аниме! kolob_117
info [Профиль]  [ЛС] 

iSenjeru

Пол: Пол:Муж

Стаж: 5 лет 5 месяцев

Сообщений: 390

Казахстан
Рейтинг

post 08-Окт-2013 22:17 (спустя 4 часа) [-]1[+]

[Цитировать] 

Офигенное аниме,теперь ждать 2-го сезона :СС
info [Профиль]  [ЛС] 

мужиггг

Пол: Пол:Муж

Стаж: 6 лет 4 месяца

Сообщений: 357

Украина
Рейтинг

post 09-Окт-2013 02:31 (спустя 4 часа) [-]0[+]

[Цитировать] 

маленький вопросец:
сильно ли экранизированное отличается от манги ? (если как берсерке, то не подходит)
info [Профиль]  [ЛС] 

Moreao

Пол: Пол:Муж

Стаж: 6 лет 2 месяца

Сообщений: 229

Украина
Рейтинг

post 09-Окт-2013 12:28 (спустя 9 часов) [-]0[+]

[Цитировать] 

мангу не читал, но говорят не сильно,а точнее отличий нет пока.
info [Профиль]  [ЛС] 

Nerzyllys

Пол: Пол:Муж

Стаж: 3 года 8 месяцев

Сообщений: 36

Предупреждений: 1

Россия
Рейтинг

post 09-Окт-2013 15:02 (спустя 2 часа 34 минуты) [-]-1[+]

[Цитировать] 

В манге некоторые вещи более подробно расписаны, сам не читал мангу, читал читающих(простите за тавтологию). Я не особый любитель аниме, но этот мульт зацепил, теперь друзьям рекомендую.
info [Профиль]  [ЛС] 

PlayForFood

Пол: Пол:Муж

Стаж: 6 лет 2 месяца

Сообщений: 6

Республика Корея
Рейтинг

post 10-Окт-2013 04:05 (спустя 13 часов) [-]0[+]

[Цитировать] 

А где сабы?
info [Профиль]  [ЛС] 

k1bernet1k

Пол: Пол:Муж

Стаж: 6 лет 9 месяцев

Сообщений: 2

Россия
Рейтинг

post 10-Окт-2013 16:18 (спустя 12 часов) [-]1[+]

[Цитировать] 

Я извиняюсь, но по моему нумерация 20-й и 21-й серий перепутана)).
info [Профиль]  [ЛС] 

NOKIAFBR

Пол: Пол:Муж

Стаж: 4 года 1 месяц

Сообщений: 24

Рейтинг

post 10-Окт-2013 16:56 (спустя 38 минут) [-]1[+]

[Цитировать] 

k1bernet1k писал(а):

Я извиняюсь, но по моему нумерация 20-й и 21-й серий перепутана)).
хм. так и есть, не стыковычка
info [Профиль]  [ЛС] 

PaaVleLy

Стаж: 4 года 11 месяцев

Сообщений: 13

Рейтинг

post 14-Окт-2013 18:08 (спустя 4 дня) [-]0[+]

[Цитировать] 

пара минут японской рекламы после ендинга в 4й серии.
info [Профиль]  [ЛС] 

mormegil

Пол: Пол:Муж

Стаж: 7 лет 8 месяцев

Сообщений: 517

Россия
Рейтинг

post 14-Окт-2013 22:46 (спустя 4 часа) [-]0[+]

[Цитировать] 

Не плохой сериал, но количество пафосных речей в нём просто зашкаливает...

_________________
i7-2600 CPU @ 3.40GHz ОЗУ 8Gb GTX590 3Gb GDDR5
info [Профиль]  [ЛС] 

foxyproxy

Пол: Пол:Муж

Стаж: 3 года 6 месяцев

Сообщений: 15

Норфолк
Рейтинг

post 16-Окт-2013 19:08 (спустя 1 день 20 часов) [-]-3[+]

[Цитировать] 

Вцелом интересный, НО ! Большое НО, это чумачечие диалоги и монологи которые выносят мозг своей конючностью.

_________________
info [Профиль]  [ЛС] 

pcrm

Пол: Пол:Муж

Стаж: 6 лет 4 месяца

Сообщений: 2

Россия
Рейтинг

post 25-Ноя-2013 00:41 (спустя 1 месяц 8 дней) [-]0[+]

[Цитировать] 

внезапно неплохая озвучка, можно смотреть без титров )
info [Профиль]  [ЛС] 
Показать сообщения:    
Ответить на тему

Текущее время: 06-Дек 16:14

Часовой пояс: GMT + 4



Вы не можете начинать темы
Вы не можете отвечать на сообщения
Вы не можете редактировать свои сообщения
Вы не можете удалять свои сообщения
Вы не можете голосовать в опросах
Вы не можете прикреплять файлы к сообщениям
Вы не можете скачивать файлы