Ошибка

Стартрек: Возмездие/ Star Trek Into Darkness (Джей Джей Абрамс) [2013 г., Фантастика, боевик, приключения, Blu-Ray CEE 1080p]

Ответить на тему
 
Автор Сообщение

Russian Man

Пол: Пол:Муж

Стаж: 4 года 6 месяцев

Сообщений: 166

Россия
Рейтинг

post 16-Сен-2013 12:18 6[+]

[Цитировать] 

Стартрек: Возмездие
"Star Trek Into Darkness"


«Beyond the darkness, lies greatness.»




Год выпуска: 2013
Страна: США
Жанр: Фантастика, боевик, приключения
Продолжительность:02:12:05
Перевод: Профессиональный дублированный |Лицензия|[Blu-Ray]
Субтитры: English : Russian : Ukrainian: Arabic : Indonesian : Malay : Bulgarian : Chinese : Czech : Greek : Estonian : Hebrew : Hindi : Icelandic : Korean : Latvian : Lithuanian : Hungarian : Chinese : Polish : Portuguese : Romanian : Chinese : Slovenian : Slovak : Serbian : Thai : Turkish

Режессер: Джей Джей Абрамс
В ролях: Крис Пайн, Закари Куинто, Бенедикт Камбербатч, Саймон Пегг, Карл Урбан, Зои Салдана, Элис Ив, Джон Чо, Антон Ельчин, Питер Уэллер

Описание:
Вернувшись на Землю, команда корабля «Энтерпрайз» обнаруживает, что деятельность и принципы их организации подорваны изнутри. Флот скован необъяснимым ужасом и бездействует, пока мир все глубже погружается в бездну.Капитан Кирк берет на себя руководство операцией по поимке злодея, ответственного за этот хаос и способного уничтожить все человечество.В запутанной игре не на жизнь, а на смерть, любовь и дружба будут принесены в жертву ради единственного, что осталось у Кирка — его команды.


Качество: Blu-ray
Формат: BDMV
Видео кодек: MPEG-4 AVC
Аудео кодек: DTS | AC3
Видео: 1920x1080 (16:9), MPEG-4 AVC ~33.2 mbps avg, 23.976 fps
Аудио: Russian: 48.0 KHz/16 bits, AC-3, 6 channels, 640 Kbps |Дубляж|
Аудио: English: 48.0 KHz/16 bits, TrueHD / AC-3, 8 channels / 6 channels, 640-6510 Kbps
Аудио: Czech: 48.0 KHz/16 bits, AC-3, 6 channels, 640 Kbps
Аудио: Hungarian: 48.0 KHz/16 bits, AC-3, 6 channels, 640 Kbps
Аудио: Polish: 48.0 KHz/16 bits, AC-3, 6 channels, 640 Kbps
Аудио: Thai: 48.0 KHz/16 bits, AC-3, 6 channels, 640 Kbps
Аудио: Turkish: 48.0 KHz/16 bits, AC-3,6 channels, 640 Kbps
Создание красной планеты
Нападение на звездный флот
Планета клингонов
Враг моего врага
С корабля на корабль
Ссора в отсеке
Код:

General
Complete name : Star_Trek_Into_Darkness_HDCLUB\BDMV\PLAYLIST\00800.mpls
Format : Blu-ray Playlist
File size : 954 Bytes
Duration : 2h 12mn
Overall bit rate mode : Variable
Overall bit rate : 1 bps

Video
ID : 4113 (0x1011)
Menu ID : 1 (0x1)
Format : AVC
Format/Info : Advanced Video Codec
Format profile : High@L4.1
Format settings, CABAC : Yes
Format settings, ReFrames : 4 frames
Codec ID : 27
Duration : 2h 12mn
Bit rate mode : Variable
Bit rate : 33.2 Mbps
Maximum bit rate : 31.7 Mbps
Width : 1 920 pixels
Height : 1 080 pixels
Display aspect ratio : 16:9
Frame rate : 23.976 fps
Color space : YUV
Chroma subsampling : 4:2:0
Bit depth : 8 bits
Scan type : Progressive
Bits/(Pixel*Frame) : 0.667
Stream size : 30.6 GiB (84%)
format_identifier : HDMV
Source : 00800.m2ts

Audio #1
ID : 4352 (0x1100)
Menu ID : 1 (0x1)
Format : TrueHD / AC-3
Mode extension : CM (complete main)
Format settings, Endianness : Big
Muxing mode : Stream extension
Codec ID : 131
Duration : 2h 12mn
Bit rate mode : Variable / Constant
Bit rate : 640 Kbps
Maximum bit rate : 6 510 Kbps
Channel(s) : 8 channels / 6 channels
Channel positions : Front: L C R, Side: L R, Back: L R, LFE / Front: L C R, Side: L R, LFE
Sampling rate : 48.0 KHz
Bit depth : 16 bits
Compression mode : Lossless
Stream size : 605 MiB (2%)
Language : English
dialnorm : -27
dialnorm/String : -27 dB
compr : 1.49
compr/String : 1.49 dB
dynrng : 1.02
dynrng/String : 1.02 dB
bsid : 6
acmod : 7
lfeon : 1
dialnorm_Average : -27
dialnorm_Average/String : -27 dB
dialnorm_Minimum : -27
dialnorm_Minimum/String : -27 dB
dialnorm_Maximum : -27
dialnorm_Maximum/String : -27 dB
dialnorm_Count : 170
compr_Average : -3.10
compr_Average/String : -3.10 dB
compr_Minimum : -8.16
compr_Minimum/String : -8.16 dB
compr_Maximum : 1.94
compr_Maximum/String : 1.94 dB
compr_Count : 170
dynrng_Average : -0.14
dynrng_Average/String : -0.14 dB
dynrng_Minimum : -8.16
dynrng_Minimum/String : -8.16 dB
dynrng_Maximum : 5.01
dynrng_Maximum/String : 5.01 dB
dynrng_Count : 170
format_identifier : AC-3
Source : 00800.m2ts

Audio #2
ID : 4353 (0x1101)
Menu ID : 1 (0x1)
Format : AC-3
Format/Info : Audio Coding 3
Mode extension : CM (complete main)
Format settings, Endianness : Big
Codec ID : 129
Duration : 2h 12mn
Bit rate mode : Constant
Bit rate : 640 Kbps
Channel(s) : 6 channels
Channel positions : Front: L C R, Side: L R, LFE
Sampling rate : 48.0 KHz
Bit depth : 16 bits
Compression mode : Lossy
Stream size : 605 MiB (2%)
Language : Czech
dialnorm : -27
dialnorm/String : -27 dB
compr : 1.49
compr/String : 1.49 dB
dynrng : 1.02
dynrng/String : 1.02 dB
bsid : 6
acmod : 7
lfeon : 1
dialnorm_Average : -27
dialnorm_Average/String : -27 dB
dialnorm_Minimum : -27
dialnorm_Minimum/String : -27 dB
dialnorm_Maximum : -27
dialnorm_Maximum/String : -27 dB
dialnorm_Count : 170
compr_Average : -3.61
compr_Average/String : -3.61 dB
compr_Minimum : -8.52
compr_Minimum/String : -8.52 dB
compr_Maximum : 1.94
compr_Maximum/String : 1.94 dB
compr_Count : 170
dynrng_Average : -0.34
dynrng_Average/String : -0.34 dB
dynrng_Minimum : -8.52
dynrng_Minimum/String : -8.52 dB
dynrng_Maximum : 4.86
dynrng_Maximum/String : 4.86 dB
dynrng_Count : 170
format_identifier : AC-3
Source : 00800.m2ts

Audio #3
ID : 4354 (0x1102)
Menu ID : 1 (0x1)
Format : AC-3
Format/Info : Audio Coding 3
Mode extension : CM (complete main)
Format settings, Endianness : Big
Codec ID : 129
Duration : 2h 12mn
Bit rate mode : Constant
Bit rate : 640 Kbps
Channel(s) : 6 channels
Channel positions : Front: L C R, Side: L R, LFE
Sampling rate : 48.0 KHz
Bit depth : 16 bits
Compression mode : Lossy
Stream size : 605 MiB (2%)
Language : Hungarian
dialnorm : -27
dialnorm/String : -27 dB
compr : 1.49
compr/String : 1.49 dB
dynrng : 1.02
dynrng/String : 1.02 dB
bsid : 6
acmod : 7
lfeon : 1
dialnorm_Average : -27
dialnorm_Average/String : -27 dB
dialnorm_Minimum : -27
dialnorm_Minimum/String : -27 dB
dialnorm_Maximum : -27
dialnorm_Maximum/String : -27 dB
dialnorm_Count : 170
compr_Average : -3.31
compr_Average/String : -3.31 dB
compr_Minimum : -8.16
compr_Minimum/String : -8.16 dB
compr_Maximum : 1.94
compr_Maximum/String : 1.94 dB
compr_Count : 170
dynrng_Average : -0.21
dynrng_Average/String : -0.21 dB
dynrng_Minimum : -7.99
dynrng_Minimum/String : -7.99 dB
dynrng_Maximum : 4.86
dynrng_Maximum/String : 4.86 dB
dynrng_Count : 170
format_identifier : AC-3
Source : 00800.m2ts

Audio #4
ID : 4355 (0x1103)
Menu ID : 1 (0x1)
Format : AC-3
Format/Info : Audio Coding 3
Mode extension : CM (complete main)
Format settings, Endianness : Big
Codec ID : 129
Duration : 2h 12mn
Bit rate mode : Constant
Bit rate : 640 Kbps
Channel(s) : 6 channels
Channel positions : Front: L C R, Side: L R, LFE
Sampling rate : 48.0 KHz
Bit depth : 16 bits
Compression mode : Lossy
Stream size : 605 MiB (2%)
Language : Polish
dialnorm : -27
dialnorm/String : -27 dB
compr : 1.49
compr/String : 1.49 dB
dynrng : 1.02
dynrng/String : 1.02 dB
bsid : 6
acmod : 7
lfeon : 1
dialnorm_Average : -27
dialnorm_Average/String : -27 dB
dialnorm_Minimum : -27
dialnorm_Minimum/String : -27 dB
dialnorm_Maximum : -27
dialnorm_Maximum/String : -27 dB
dialnorm_Count : 170
compr_Average : 1.22
compr_Average/String : 1.22 dB
compr_Minimum : -3.66
compr_Minimum/String : -3.66 dB
compr_Maximum : 5.16
compr_Maximum/String : 5.16 dB
compr_Count : 170
dynrng_Average : 1.22
dynrng_Average/String : 1.22 dB
dynrng_Minimum : -3.87
dynrng_Minimum/String : -3.87 dB
dynrng_Maximum : 5.31
dynrng_Maximum/String : 5.31 dB
dynrng_Count : 170
format_identifier : AC-3
Source : 00800.m2ts

Audio #5
ID : 4356 (0x1104)
Menu ID : 1 (0x1)
Format : AC-3
Format/Info : Audio Coding 3
Mode extension : CM (complete main)
Format settings, Endianness : Big
Codec ID : 129
Duration : 2h 12mn
Bit rate mode : Constant
Bit rate : 640 Kbps
Channel(s) : 6 channels
Channel positions : Front: L C R, Side: L R, LFE
Sampling rate : 48.0 KHz
Bit depth : 16 bits
Compression mode : Lossy
Stream size : 605 MiB (2%)
Language : Russian
dialnorm : -27
dialnorm/String : -27 dB
compr : 1.49
compr/String : 1.49 dB
dynrng : 1.02
dynrng/String : 1.02 dB
bsid : 6
acmod : 7
lfeon : 1
dialnorm_Average : -27
dialnorm_Average/String : -27 dB
dialnorm_Minimum : -27
dialnorm_Minimum/String : -27 dB
dialnorm_Maximum : -27
dialnorm_Maximum/String : -27 dB
dialnorm_Count : 170
compr_Average : -3.31
compr_Average/String : -3.31 dB
compr_Minimum : -8.16
compr_Minimum/String : -8.16 dB
compr_Maximum : 1.94
compr_Maximum/String : 1.94 dB
compr_Count : 170
dynrng_Average : -0.22
dynrng_Average/String : -0.22 dB
dynrng_Minimum : -7.99
dynrng_Minimum/String : -7.99 dB
dynrng_Maximum : 4.86
dynrng_Maximum/String : 4.86 dB
dynrng_Count : 170
format_identifier : AC-3
Source : 00800.m2ts

Audio #6
ID : 4357 (0x1105)
Menu ID : 1 (0x1)
Format : AC-3
Format/Info : Audio Coding 3
Mode extension : CM (complete main)
Format settings, Endianness : Big
Codec ID : 129
Duration : 2h 12mn
Bit rate mode : Constant
Bit rate : 640 Kbps
Channel(s) : 6 channels
Channel positions : Front: L C R, Side: L R, LFE
Sampling rate : 48.0 KHz
Bit depth : 16 bits
Compression mode : Lossy
Stream size : 605 MiB (2%)
Language : Thai
dialnorm : -27
dialnorm/String : -27 dB
compr : 1.49
compr/String : 1.49 dB
dynrng : 1.02
dynrng/String : 1.02 dB
bsid : 6
acmod : 7
lfeon : 1
dialnorm_Average : -27
dialnorm_Average/String : -27 dB
dialnorm_Minimum : -27
dialnorm_Minimum/String : -27 dB
dialnorm_Maximum : -27
dialnorm_Maximum/String : -27 dB
dialnorm_Count : 170
compr_Average : -3.62
compr_Average/String : -3.62 dB
compr_Minimum : -8.52
compr_Minimum/String : -8.52 dB
compr_Maximum : 1.94
compr_Maximum/String : 1.94 dB
compr_Count : 170
dynrng_Average : -0.35
dynrng_Average/String : -0.35 dB
dynrng_Minimum : -8.52
dynrng_Minimum/String : -8.52 dB
dynrng_Maximum : 4.86
dynrng_Maximum/String : 4.86 dB
dynrng_Count : 170
format_identifier : AC-3
Source : 00800.m2ts

Audio #7
ID : 4358 (0x1106)
Menu ID : 1 (0x1)
Format : AC-3
Format/Info : Audio Coding 3
Mode extension : CM (complete main)
Format settings, Endianness : Big
Codec ID : 129
Duration : 2h 12mn
Bit rate mode : Constant
Bit rate : 640 Kbps
Channel(s) : 6 channels
Channel positions : Front: L C R, Side: L R, LFE
Sampling rate : 48.0 KHz
Bit depth : 16 bits
Compression mode : Lossy
Stream size : 605 MiB (2%)
Language : Turkish
dialnorm : -27
dialnorm/String : -27 dB
compr : 1.49
compr/String : 1.49 dB
dynrng : 1.02
dynrng/String : 1.02 dB
bsid : 6
acmod : 7
lfeon : 1
dialnorm_Average : -27
dialnorm_Average/String : -27 dB
dialnorm_Minimum : -27
dialnorm_Minimum/String : -27 dB
dialnorm_Maximum : -27
dialnorm_Maximum/String : -27 dB
dialnorm_Count : 170
compr_Average : -3.61
compr_Average/String : -3.61 dB
compr_Minimum : -8.52
compr_Minimum/String : -8.52 dB
compr_Maximum : 1.94
compr_Maximum/String : 1.94 dB
compr_Count : 170
dynrng_Average : -0.34
dynrng_Average/String : -0.34 dB
dynrng_Minimum : -8.52
dynrng_Minimum/String : -8.52 dB
dynrng_Maximum : 4.86
dynrng_Maximum/String : 4.86 dB
dynrng_Count : 170
format_identifier : AC-3
Source : 00800.m2ts

Text #1
ID : 4608 (0x1200)
Menu ID : 1 (0x1)
Format : PGS
Codec ID : 144
Duration : 2h 12mn
Language : Arabic
Source : 00800.m2ts

Text #2
ID : 4609 (0x1201)
Menu ID : 1 (0x1)
Format : PGS
Codec ID : 144
Duration : 2h 12mn
Language : Indonesian
Source : 00800.m2ts

Text #3
ID : 4610 (0x1202)
Menu ID : 1 (0x1)
Format : PGS
Codec ID : 144
Duration : 2h 12mn
Language : Malay
Source : 00800.m2ts

Text #4
ID : 4611 (0x1203)
Menu ID : 1 (0x1)
Format : PGS
Codec ID : 144
Duration : 2h 12mn
Language : Bulgarian
Source : 00800.m2ts

Text #5
ID : 4612 (0x1204)
Menu ID : 1 (0x1)
Format : PGS
Codec ID : 144
Duration : 2h 12mn
Language : Chinese
Source : 00800.m2ts

Text #6
ID : 4613 (0x1205)
Menu ID : 1 (0x1)
Format : PGS
Codec ID : 144
Duration : 2h 12mn
Language : Czech
Source : 00800.m2ts

Text #7
ID : 4614 (0x1206)
Menu ID : 1 (0x1)
Format : PGS
Codec ID : 144
Duration : 2h 12mn
Language : Greek
Source : 00800.m2ts

Text #8
ID : 4615 (0x1207)
Menu ID : 1 (0x1)
Format : PGS
Codec ID : 144
Duration : 2h 12mn
Language : Estonian
Source : 00800.m2ts

Text #9
ID : 4616 (0x1208)
Menu ID : 1 (0x1)
Format : PGS
Codec ID : 144
Duration : 2h 12mn
Language : English
Source : 00800.m2ts

Text #10
ID : 4617 (0x1209)
Menu ID : 1 (0x1)
Format : PGS
Codec ID : 144
Duration : 2h 12mn
Language : Hebrew
Source : 00800.m2ts

Text #11
ID : 4618 (0x120A)
Menu ID : 1 (0x1)
Format : PGS
Codec ID : 144
Duration : 2h 12mn
Language : Hindi
Source : 00800.m2ts

Text #12
ID : 4619 (0x120B)
Menu ID : 1 (0x1)
Format : PGS
Codec ID : 144
Duration : 2h 12mn
Language : Croatian
Source : 00800.m2ts

Text #13
ID : 4620 (0x120C)
Menu ID : 1 (0x1)
Format : PGS
Codec ID : 144
Duration : 2h 12mn
Language : Icelandic
Source : 00800.m2ts

Text #14
ID : 4621 (0x120D)
Menu ID : 1 (0x1)
Format : PGS
Codec ID : 144
Duration : 2h 12mn
Language : Korean
Source : 00800.m2ts

Text #15
ID : 4622 (0x120E)
Menu ID : 1 (0x1)
Format : PGS
Codec ID : 144
Duration : 2h 12mn
Language : Latvian
Source : 00800.m2ts

Text #16
ID : 4623 (0x120F)
Menu ID : 1 (0x1)
Format : PGS
Codec ID : 144
Duration : 2h 12mn
Language : Lithuanian
Source : 00800.m2ts

Text #17
ID : 4624 (0x1210)
Menu ID : 1 (0x1)
Format : PGS
Codec ID : 144
Duration : 2h 12mn
Language : Hungarian
Source : 00800.m2ts

Text #18
ID : 4625 (0x1211)
Menu ID : 1 (0x1)
Format : PGS
Codec ID : 144
Duration : 2h 12mn
Language : Chinese
Source : 00800.m2ts

Text #19
ID : 4626 (0x1212)
Menu ID : 1 (0x1)
Format : PGS
Codec ID : 144
Duration : 2h 12mn
Language : Polish
Source : 00800.m2ts

Text #20
ID : 4627 (0x1213)
Menu ID : 1 (0x1)
Format : PGS
Codec ID : 144
Duration : 2h 12mn
Language : Portuguese
Source : 00800.m2ts

Text #21
ID : 4628 (0x1214)
Menu ID : 1 (0x1)
Format : PGS
Codec ID : 144
Duration : 2h 12mn
Language : Russian
Source : 00800.m2ts

Text #22
ID : 4629 (0x1215)
Menu ID : 1 (0x1)
Format : PGS
Codec ID : 144
Duration : 2h 12mn
Language : Romanian
Source : 00800.m2ts

Text #23
ID : 4630 (0x1216)
Menu ID : 1 (0x1)
Format : PGS
Codec ID : 144
Duration : 2h 12mn
Language : Chinese
Source : 00800.m2ts

Text #24
ID : 4631 (0x1217)
Menu ID : 1 (0x1)
Format : PGS
Codec ID : 144
Duration : 2h 12mn
Language : Slovenian
Source : 00800.m2ts

Text #25
ID : 4632 (0x1218)
Menu ID : 1 (0x1)
Format : PGS
Codec ID : 144
Duration : 2h 12mn
Language : Slovak
Source : 00800.m2ts

Text #26
ID : 4633 (0x1219)
Menu ID : 1 (0x1)
Format : PGS
Codec ID : 144
Duration : 2h 12mn
Language : Serbian
Source : 00800.m2ts

Text #27
ID : 4634 (0x121A)
Menu ID : 1 (0x1)
Format : PGS
Codec ID : 144
Duration : 2h 12mn
Language : Thai
Source : 00800.m2ts

Text #28
ID : 4635 (0x121B)
Menu ID : 1 (0x1)
Format : PGS
Codec ID : 144
Duration : 2h 12mn
Language : Turkish
Source : 00800.m2ts

Text #29
ID : 4636 (0x121C)
Menu ID : 1 (0x1)
Format : PGS
Codec ID : 144
Duration : 2h 12mn
Language : Ukrainian
Source : 00800.m2ts
info [Профиль]  [ЛС] 

KRUSH

Пол: Пол:Муж

Стаж: 7 лет 1 месяц

Сообщений: 528

Токелау
Рейтинг

post 16-Сен-2013 14:06 (спустя 1 час 47 минут) [-]0[+]

[Цитировать] 

Спасибо отличный релиз. Еще бы звук бы Russian: 48 kHz/24-bit, DTS-HD MA 5.1, ~4055.00 kbps avg |Дубляж, Paramount Pictures|

_________________
Core i7 3770k, Asus P8Z77V-LE plus;
Corsair Vengeance 16 GB 1600 MHZ
Hitachi 7k4000 4 TB
Gigabyte 980 TI G1 Gaming 6 GB
Corsair AX 1200W
Asus Xonar D2X
OCZ Vertex 4 128 GB
Playstation 4
info [Профиль]  [ЛС] 

Russian Man

Пол: Пол:Муж

Стаж: 4 года 6 месяцев

Сообщений: 166

Россия
Рейтинг

post 21-Сен-2013 13:31 (спустя 4 дня) [-]0[+]

[Цитировать] 

KRUSH писал(а):

Спасибо отличный релиз.
пожалуйста kolob_117
info [Профиль]  [ЛС] 

MrShark

Пол: Пол:Муж

Стаж: 4 года 9 месяцев

Сообщений: 33

Россия
Рейтинг

post 09-Окт-2013 19:15 (спустя 18 дней) [-]0[+]

[Цитировать] 

Как его посмотреть, обычный Media Player Classic откроет? Или может посоветуете что -нибудь?
info [Профиль]  [ЛС] 

AlexFormula

Пол: Пол:Муж

Стаж: 7 лет 10 месяцев

Сообщений: 16621

Рейтинг

post 09-Окт-2013 20:24 (спустя 1 час 8 минут) [-]1[+]

[Цитировать] 

MrShark писал(а):

Как его посмотреть, обычный Media Player Classic откроет? Или может посоветуете что -нибудь?
Откроет. Нужен файл 00800.m2ts, который находится в папке STREAM.
info [Профиль]  [ЛС] 

MrShark

Пол: Пол:Муж

Стаж: 4 года 9 месяцев

Сообщений: 33

Россия
Рейтинг

post 09-Окт-2013 20:52 (спустя 28 минут) [-]0[+]

[Цитировать] 

Formula писал(а):

MrShark писал(а):

Как его посмотреть, обычный Media Player Classic откроет? Или может посоветуете что -нибудь?
Откроет. Нужен файл 00800.m2ts, который находится в папке STREAM.
Большое спасибо
info [Профиль]  [ЛС] 
Показать сообщения:    
Ответить на тему

Текущее время: 26-Фев 12:06

Часовой пояс: GMT + 4



Вы не можете начинать темы
Вы не можете отвечать на сообщения
Вы не можете редактировать свои сообщения
Вы не можете удалять свои сообщения
Вы не можете голосовать в опросах
Вы не можете прикреплять файлы к сообщениям
Вы не можете скачивать файлы