Ошибка

Семейка Крудс / The Croods (Кирк де Микко / Kirk De Micco, Крис Сандерс / Chris Sanders) [2013, мультфильм, комедия, приключения, семейный, BDRip-AVC] от L | Dub + Orig Eng + Sub rus, Eng

Ответить на тему
 
Автор Сообщение

L

Пол: Пол:Муж

Стаж: 6 лет 7 месяцев

Сообщений: 10811

Украина
Рейтинг

post 16-Сен-2013 08:33 0[+]

[Цитировать] 

Семейка Крудс / The Croods

Страна: США
Жанр:мультфильм, комедия, приключения, семейный
Год выпуска: 2013
Продолжительность: 01:38:37
Перевод: Профессиональный (дублированный) [Лицензия]
Субтитры: русские, английские
Оригинальная дорожка: английский
Главы: есть

Режиссер: Кирк де Микко / Kirk De Micco, Крис Сандерс / Chris Sanders
В ролях: Николас Кейдж (Grug, озвучка,), Эмма Стоун (Eep, озвучка), Райан Рейнольдс (Guy, озвучка), Кэтрин Кинер (Ugga, озвучка), Клорис Личмен (Gran, озвучка), Кларк Дьюк (Thunk, озвучка), Крис Сандерс (Belt, озвучка)

Роли дублировали: Дмитрий Назаров (Grug), Нюша Шурочкина (Eep), Егор Дружинин (Guy), Александра Назарова (Gran), Руслан Мещанов (Thunk)
Описание: Землетрясение уничтожило дом доисторической семьи, и теперь Крудсам придётся искать другое пристанище. А вокруг новый и опасный мир! Им на помощь приходит молодой кочевник Малой, передовые взгляды которого наталкиваются на консервативность главы семьи Груга. Но только вместе они смогут выжить и достичь своей цели...
IMDB | Кинопоиск | Сэмпл
Качество видео: BDRip-AVC (энкод L)
Формат видео: MKV

Видео: AVC / High@L4.1 / 1148 x 488 / 2 269 Kbps / 2.35:1
Аудио:
Russian: 48 kHz, AC3 Dolby Digital, 3/2 (L,C,R,l,r) + LFE ch, ~448 kbps
English: 48 kHz, AC3 Dolby Digital, 3/2 (L,C,R,l,r) + LFE ch, ~448 kbps
Формат субтитров: softsub (SRT)

Раздача от &
THE_CROODS_2013_REMUX_HDCLUB

Код:

Общее
Уникальный идентификатор                 : 250010809479366382398180120389983683224 (0xBC165497B1E4950C9880EE154C004298)
Полное имя                               : D:\25Kadr\Semeyka.Kruds.2013.Bluray.Rip.x264.ac3.rus.eng.sub.by.L.mkv
Формат                                   : Matroska
Версия формата                           : Version 2
Размер файла                             : 2,18 Гбайт
Продолжительность                        : 1 ч. 38 м.
Общий поток                              : 3166 Кбит/сек
Название фильма                          : Семейка Крудс / The Croods [2013 г.] | Рип от L | Unionpeer
Дата кодирования                         : UTC 2013-09-16 04:05:14
Программа кодирования                    : mkvmerge v3.2.0 ('Beginnings') built on Feb 12 2010 16:46:17
Библиотека кодирования                   : libebml v0.7.9 + libmatroska v0.8.1

Видео
Идентификатор                            : 1
Формат                                   : AVC
Формат/Информация                        : Advanced Video Codec
Профиль формата                          : High@L4.1
Параметр CABAC формата                   : Да
Параметр ReFrames формата                : 11 кадров
Идентификатор кодека                     : V_MPEG4/ISO/AVC
Продолжительность                        : 1 ч. 38 м.
Битрейт                                  : 2269 Кбит/сек
Ширина                                   : 1148 пикселей
Высота                                   : 488 пикселей
Соотношение сторон                       : 2,35:1
Режим частоты кадров                     : Постоянный
Частота кадров                           : 23,976 кадра/сек
Цветовое пространство                    : YUV
Субдискретизация насыщенности            : 4:2:0
Битовая глубина                          : 8 бит
Тип развёртки                            : Прогрессивная
Бит/(Пиксели*Кадры)                      : 0.169
Размер потока                            : 1,52 Гбайт (70%)
Библиотека кодирования                   : x264 core 133 r2334 a3ac64b
Настройки программы                      : cabac=1 / ref=11 / deblock=1:-2:-1 / analyse=0x3:0x133 / me=umh / subme=11 / psy=1 / psy_rd=1.10:0.10 / mixed_ref=1 / me_range=32 / chroma_me=1 / trellis=2 / 8x8dct=1 / cqm=0 / deadzone=21,11 / fast_pskip=0 / chroma_qp_offset=-4 / threads=6 / lookahead_threads=1 / sliced_threads=0 / nr=0 / decimate=1 / interlaced=0 / bluray_compat=0 / constrained_intra=0 / bframes=11 / b_pyramid=2 / b_adapt=2 / b_bias=0 / direct=3 / weightb=1 / open_gop=0 / weightp=2 / keyint=230 / keyint_min=21 / scenecut=40 / intra_refresh=0 / rc_lookahead=60 / rc=2pass / mbtree=0 / bitrate=2269 / ratetol=1.0 / qcomp=0.70 / qpmin=0 / qpmax=69 / qpstep=4 / cplxblur=20.0 / qblur=0.5 / vbv_maxrate=50000 / vbv_bufsize=62500 / nal_hrd=none / ip_ratio=1.35 / pb_ratio=1.25 / aq=2:0.90
Язык                                     : English
Default                                  : Нет
Forced                                   : Нет

Аудио #1
Идентификатор                            : 2
Формат                                   : AC-3
Формат/Информация                        : Audio Coding 3
Расширение режима                        : CM (complete main)
Параметр Endianness формата              : Big
Идентификатор кодека                     : A_AC3
Продолжительность                        : 1 ч. 38 м.
Вид битрейта                             : Постоянный
Битрейт                                  : 448 Кбит/сек
Каналы                                   : 6 каналов
Расположение каналов                     : Front: L C R, Side: L R, LFE
Частота                                  : 48,0 КГц
Битовая глубина                          : 16 бит
Метод сжатия                             : С потерями
Размер потока                            : 316 Мбайт (14%)
Заголовок                                : Дубляж, AC3 5.1@448 kbps
Язык                                     : Russian
Default                                  : Да
Forced                                   : Нет

Аудио #2
Идентификатор                            : 3
Формат                                   : AC-3
Формат/Информация                        : Audio Coding 3
Расширение режима                        : CM (complete main)
Параметр Endianness формата              : Big
Идентификатор кодека                     : A_AC3
Продолжительность                        : 1 ч. 38 м.
Вид битрейта                             : Постоянный
Битрейт                                  : 448 Кбит/сек
Каналы                                   : 6 каналов
Расположение каналов                     : Front: L C R, Side: L R, LFE
Частота                                  : 48,0 КГц
Битовая глубина                          : 16 бит
Метод сжатия                             : С потерями
Размер потока                            : 316 Мбайт (14%)
Заголовок                                : Оригинал, AC3 5.1@448 kbps
Язык                                     : English
Default                                  : Нет
Forced                                   : Нет

Текст #1
Идентификатор                            : 4
Формат                                   : UTF-8
Идентификатор кодека                     : S_TEXT/UTF8
Идентификатор кодека/Информация          : UTF-8 Plain Text
Язык                                     : Russian
Default                                  : Да
Forced                                   : Нет

Текст #2
Идентификатор                            : 5
Формат                                   : UTF-8
Идентификатор кодека                     : S_TEXT/UTF8
Идентификатор кодека/Информация          : UTF-8 Plain Text
Язык                                     : English
Default                                  : Нет
Forced                                   : Нет

Меню
00:00:00.000                             : en:00:00:00.000
00:02:34.987                             : en:00:02:34.987
00:04:51.749                             : en:00:04:51.749
00:09:01.249                             : en:00:09:01.249
00:12:21.115                             : en:00:12:21.115
00:14:04.802                             : en:00:14:04.802
00:18:33.028                             : en:00:18:33.028
00:21:56.981                             : en:00:21:56.981
00:23:24.736                             : en:00:23:24.736
00:26:49.773                             : en:00:26:49.773
00:28:37.132                             : en:00:28:37.132
00:30:25.656                             : en:00:30:25.656
00:32:48.633                             : en:00:32:48.633
00:36:03.369                             : en:00:36:03.369
00:38:33.561                             : en:00:38:33.561
00:41:34.532                             : en:00:41:34.532
00:44:38.842                             : en:00:44:38.842
00:48:02.628                             : en:00:48:02.628
00:52:10.960                             : en:00:52:10.960
00:55:17.480                             : en:00:55:17.480
01:00:14.777                             : en:01:00:14.777
01:03:58.083                             : en:01:03:58.083
01:05:48.735                             : en:01:05:48.735
01:08:44.036                             : en:01:08:44.036
01:10:47.283                             : en:01:10:47.283
01:12:37.144                             : en:01:12:37.144
01:14:01.645                             : en:01:14:01.645
01:19:48.574                             : en:01:19:48.574
01:23:09.859                             : en:01:23:09.859
01:25:16.735                             : en:01:25:16.735
01:28:04.319                             : en:01:28:04.319
01:30:02.229                             : en:01:30:02.229
info [Профиль]  [ЛС] 
Показать сообщения:    
Ответить на тему

Текущее время: 07-Дек 12:46

Часовой пояс: GMT + 4



Вы не можете начинать темы
Вы не можете отвечать на сообщения
Вы не можете редактировать свои сообщения
Вы не можете удалять свои сообщения
Вы не можете голосовать в опросах
Вы не можете прикреплять файлы к сообщениям
Вы не можете скачивать файлы