Ошибка

Семейка Крудс / The Croods (Кирк де Микко / Kirk De Micco, Крис Сандерс / Chris Sanders) [2013, фэнтези, комедия, приключения, семейный, BDRip 720p] Dub + ENG + Subs (Rus, Eng)

Ответить на тему
 
Автор Сообщение

noobique

Пол: Пол:Муж

Стаж: 6 лет 5 месяцев

Сообщений: 160

Россия
Рейтинг

post 15-Сен-2013 18:53 0[+]

[Цитировать] 

Семейка Крудс | The Croods
«Если они не эволюционируют, то станут историей»
Страна: США | DreamWorks Animation
Жанр: Мультфильм, комедия, приключения, семейный
Продолжительность: 01:38:36
Год выпуска: 2013
Перевод: Профессиональный (дублированный) [Лицензия, DreamWorks/20th Century Fox]

Режиссёр: Кирк де Микко / Kirk De Micco, Крис Сандерс / Chris Sanders
Роли озвучивали: Николас Кейдж, Эмма Стоун, Райан Рейнольдс, Кэтрин Кинер, Клорис Личмен, Кларк Дьюк, Крис Сандерс
Роли дублировали: Дмитрий Назаров, Нюша Шурочкина, Егор Дружинин, Александра Назарова, Руслан Мещанов...

Описание: Землетрясение уничтожило дом доисторической семьи, и теперь Крудсам придётся искать другое пристанище. А вокруг новый и опасный мир! Им на помощь приходит молодой кочевник Малой, передовые взгляды которого наталкиваются на консервативность главы семьи Груга. Но только вместе они смогут выжить и достичь своей цели…
Релиз от:

Качество: BDRip 720p [HDWinG]
Формат: MKV
Видео: MPEG4 Video (H264), ~5 200 Kbps, 1280x544, 23.976 fps
Аудио 1: Russian - DTS, 1509 Kbps, 48KHz, 6ch [Дубляж, DreamWorks/20th Century Fox]
Аудио 2: English - DTS, 1509 Kbps, 48KHz, 6ch
Субтитры: Russian, English
Семпл

Код:

General
Unique ID : 197270009791390762074111248219953168952 (0x9468D267F3B060B3985381DE115C0238)
Complete name : D:\Мультфильмы\Короткометражные\The.Croods.2013.720p.BluRay.Rus.Eng.HDCLUB.mkv
Format : Matroska
Format version : Version 2
File size : 5.66 GiB
Duration : 1h 38mn
Overall bit rate : 8 222 Kbps
Movie name : The Croods (2013) - Release for HDCLUB
Encoded date : UTC 2013-09-14 10:07:53
Writing application : mkvmerge v5.7.0 ('The Whirlwind') built on Jul 29 2012 15:12:35
Writing library : libebml v1.2.3 + libmatroska v1.3.0
Attachment : Yes / Yes

Video
ID : 1
Format : AVC
Format/Info : Advanced Video Codec
Format profile : High@L4.1
Format settings, CABAC : Yes
Format settings, ReFrames : 12 frames
Codec ID : V_MPEG4/ISO/AVC
Duration : 1h 38mn
Bit rate : 5 200 Kbps
Width : 1 280 pixels
Height : 544 pixels
Display aspect ratio : 2.35:1
Frame rate mode : Constant
Frame rate : 23.976 fps
Color space : YUV
Chroma subsampling : 4:2:0
Bit depth : 8 bits
Scan type : Progressive
Bits/(Pixel*Frame) : 0.311
Stream size : 3.47 GiB (61%)
Title : The Croods (2013) - Release for HDCLUB
Writing library : x264 core 136 r2348+704+51 d1baef6 tMod [8-bit@4:2:0 X86_64]
Encoding settings : cabac=1 / ref=12 / deblock=1:-1:-1 / analyse=0x3:0x133 / me=umh / subme=11 / psy=1 / fade_compensate=0.00 / psy_rd=1.00:0.00 / mixed_ref=1 / me_range=32 / chroma_me=1 / trellis=2 / 8x8dct=1 / cqm=0 / deadzone=21,11 / fast_pskip=0 / chroma_qp_offset=-2 / threads=18 / lookahead_threads=3 / sliced_threads=0 / nr=0 / decimate=0 / interlaced=0 / bluray_compat=0 / constrained_intra=0 / fgo=0 / bframes=8 / b_pyramid=2 / b_adapt=2 / b_bias=0 / direct=3 / weightb=1 / open_gop=0 / weightp=2 / keyint=240 / keyint_min=24 / scenecut=40 / intra_refresh=0 / rc_lookahead=240 / rc=2pass / mbtree=1 / bitrate=5200 / ratetol=1.0 / qcomp=0.70 / qpmin=0:0:0 / qpmax=69:69:69 / qpstep=4 / cplxblur=20.0 / qblur=0.5 / ip_ratio=1.15 / aq=4:1.00 / aq-sensitivity=10.00 / aq-factor=1.00:1.00:1.00 / aq2=0 / aq3=0
Language : English
Default : No
Forced : No

Audio #1
ID : 2
Format : DTS
Format/Info : Digital Theater Systems
Mode : 16
Format settings, Endianness : Big
Codec ID : A_DTS
Duration : 1h 38mn
Bit rate mode : Constant
Bit rate : 1 509 Kbps
Channel(s) : 6 channels
Channel positions : Front: L C R, Side: L R, LFE
Sampling rate : 48.0 KHz
Bit depth : 16 bits
Compression mode : Lossy
Stream size : 1.04 GiB (18%)
Title : DTS 5.1 @ 1536 kbps - DUB
Language : Russian
Default : Yes
Forced : No

Audio #2
ID : 3
Format : DTS
Format/Info : Digital Theater Systems
Mode : 16
Format settings, Endianness : Big
Codec ID : A_DTS
Duration : 1h 38mn
Bit rate mode : Constant
Bit rate : 1 509 Kbps
Channel(s) : 6 channels
Channel positions : Front: L C R, Side: L R, LFE
Sampling rate : 48.0 KHz
Bit depth : 24 bits
Compression mode : Lossy
Delay relative to video : 11ms
Stream size : 1.04 GiB (18%)
Title : DTS 5.1 @ 1536 kbps
Language : English
Default : No
Forced : No

Text #1
ID : 4
Format : UTF-8
Codec ID : S_TEXT/UTF8
Codec ID/Info : UTF-8 Plain Text
Language : Russian
Default : Yes
Forced : No

Text #2
ID : 5
Format : UTF-8
Codec ID : S_TEXT/UTF8
Codec ID/Info : UTF-8 Plain Text
Language : English
Default : No
Forced : No

Menu
00:00:00.000 : en:Chapter 1
00:02:34.988 : en:Chapter 2
00:04:51.749 : en:Chapter 3
00:09:01.249 : en:Chapter 4
00:12:21.115 : en:Chapter 5
00:14:04.801 : en:Chapter 6
00:18:33.028 : en:Chapter 7
00:21:56.982 : en:Chapter 8
00:23:24.736 : en:Chapter 9
00:26:49.773 : en:Chapter 10
00:28:37.132 : en:Chapter 11
00:30:25.657 : en:Chapter 12
00:32:48.633 : en:Chapter 13
00:36:03.369 : en:Chapter 14
00:38:33.561 : en:Chapter 15
00:41:34.533 : en:Chapter 16
00:44:38.842 : en:Chapter 17
00:48:02.629 : en:Chapter 18
00:52:10.960 : en:Chapter 19
00:55:17.480 : en:Chapter 20
01:00:14.777 : en:Chapter 21
01:03:58.084 : en:Chapter 22
01:05:48.736 : en:Chapter 23
01:08:44.036 : en:Chapter 24
01:10:47.283 : en:Chapter 25
01:12:37.144 : en:Chapter 26
01:14:01.645 : en:Chapter 27
01:19:48.575 : en:Chapter 28
01:23:09.859 : en:Chapter 29
01:25:16.736 : en:Chapter 30
01:28:04.320 : en:Chapter 31
01:30:02.229 : en:Chapter 32
          
info [Профиль]  [ЛС] 

L

Пол: Пол:Муж

Стаж: 6 лет 7 месяцев

Сообщений: 10784

Украина
Рейтинг

post 15-Сен-2013 22:20 (спустя 3 часа) [-]0[+]

[Цитировать] 

Добавьте сэмпл.

_________________
info [Профиль]  [ЛС] 

noobique

Пол: Пол:Муж

Стаж: 6 лет 5 месяцев

Сообщений: 160

Россия
Рейтинг

post 16-Сен-2013 01:04 (спустя 2 часа 44 минуты) [-]0[+]

[Цитировать] 

L писал(а):

Добавьте сэмпл.
Добавил
info [Профиль]  [ЛС] 

vadrin

Стаж: 3 года 7 месяцев

Сообщений: 7

Россия
Рейтинг

post 16-Сен-2013 08:12 (спустя 7 часов) [-]0[+]

[Цитировать] 

Встаньте на раздачу. 11 часов, а раздающих уже нет.
Буду раздавать круглосуточно. kolob_138

_________________
info [Профиль]  [ЛС] 

L

Пол: Пол:Муж

Стаж: 6 лет 7 месяцев

Сообщений: 10784

Украина
Рейтинг

post 16-Сен-2013 08:21 (спустя 9 минут) [-]0[+]

[Цитировать] 

vadrin
Раздача была в анонсах. Скоро все будет.

_________________
info [Профиль]  [ЛС] 

monteki92

Пол: Пол:Муж

Стаж: 4 года 7 месяцев

Сообщений: 326

Предупреждений: 1

Рейтинг

post 17-Сен-2013 10:52 (спустя 1 день 2 часа) [-]0[+]

[Цитировать] 

спасибо большое за 720!

_________________
Если школьницам не продают бухло и сигареты,
Я беру свой паспорт и спешу на помощь этим детям.
Пейте, леди, пока не видят мама и папа,
И где же был Тесак, пока я их лапал?
info [Профиль]  [ЛС] 
Показать сообщения:    
Ответить на тему

Текущее время: 05-Дек 16:39

Часовой пояс: GMT + 4



Вы не можете начинать темы
Вы не можете отвечать на сообщения
Вы не можете редактировать свои сообщения
Вы не можете удалять свои сообщения
Вы не можете голосовать в опросах
Вы не можете прикреплять файлы к сообщениям
Вы не можете скачивать файлы