Ошибка

До окончания фрилича осталось:


Эпик / Epic (Крис Уэдж / Chris Wedge) [2013 г., мультфильм, фэнтези, приключения, семейный, BDRip 1080p]

Ответить на тему
 
Автор Сообщение

zayatz

Пол: Пол:Муж

Стаж: 3 года 10 месяцев

Сообщений: 530

Россия
Рейтинг

post 12-Авг-2013 11:16 3[+]

[Цитировать] 

Эпик / Epic

Год выпуска: 2013
Страна: США
Жанр: мультфильм, фэнтези, приключения, семейный
Продолжительность: 01:42:29
Перевод: Профессиональный (полное дублирование)
Язык субтитров: Отсутствуют

Режиссер:
Крис Уэдж / Chris Wedge

Роли озвучивали:
  • Джейсон Судейкис, Стивен Тайлер, Аманда Сайфред, Питбулл, Бейонсе Ноулз, Джош Хатчерсон, Джуда Фридлендер, Колин Фаррелл, Азиз Ансари, Блейк Андерсон


Описание: После долгой разлуки юная Мэри Кэтрин возвращается в дом, где отшельником живет ее отец, безумный профессор Бомба. Однако тот совсем не обращает внимания на дочь и одержим лишь одной идеей — изучить скрытый от посторонних глаз таинственный лесной мир. Девушка отказывается верить, что под ногами человечества идет вечная борьба между армиями, воюющими на сторонах добра и зла. Чудесным образом Мэри Кэтрин уменьшается в размерах и знакомится с маленькими воинами. Теперь от нее зависит спасение не только волшебного лесного, но и реального человеческого мира…

Качество: Blu-ray Rip
Формат: MKV
Видео кодек: H.264
Аудио кодек: AC3
Видео: 1920x800 at 23.976 fps, x264@L4.1, ~7300 kbps avg
Аудио#1: Russian: 48 kHz, AC3, 3/2 (L,C,R,l,r) + LFE ch, ~384.00 kbps (Дубляж, iTunes Russia)
Аудио#2: English: 48 kHz, DTS, 3/2 (L,C,R,l,r) + LFE ch, ~1536.00 kbps
Общее
Уникальный идентификатор : 211810249185724838618305129303199381249 (0x9F592B8E86194DA49C45B9A022EAF701)
Полное имя : D:\CINEMA\Epic.BluRay.1080p.Rus .mkv
Формат : Matroska
Версия формата : Version 2
Размер файла : 6,57 Гбайт
Продолжительность : 1 ч. 42 м.
Общий поток : 9184 Кбит/сек
Название фильма : Epic (2013) - by maratdnb
Дата кодирования : UTC 2013-08-12 07:06:37
Программа кодирования : mkvmerge v3.2.0 ('Beginnings') built on Feb 12 2010 16:46:17
Библиотека кодирования : libebml v0.7.9 + libmatroska v0.8.1

Видео
Идентификатор : 1
Формат : AVC
Формат/Информация : Advanced Video Codec
Профиль формата : High@L4.1
Параметр CABAC формата : Да
Параметр ReFrames формата : 5 кадров
Идентификатор кодека : V_MPEG4/ISO/AVC
Продолжительность : 1 ч. 42 м.
Битрейт : 7108 Кбит/сек
Ширина : 1920 пикселей
Высота : 800 пикселей
Соотношение сторон : 2,40:1
Режим частоты кадров : Постоянный
Частота кадров : 23,976 кадра/сек
Цветовое пространство : YUV
Субдискретизация насыщенности : 4:2:0
Битовая глубина : 8 бит
Тип развёртки : Прогрессивная
Бит/(Пиксели*Кадры) : 0.193
Размер потока : 5,09 Гбайт (77%)
Заголовок : Epic (2013) - by maratdnb
Библиотека кодирования : x264 core 132 r2323+704+51 d571b1c tMod [8-bit@4:2:0 X86_64]
Настройки программы : cabac=1 / ref=5 / deblock=1:-3:-3 / analyse=0x3:0x133 / me=umh / subme=11 / psy=1 / fade_compensate=0.00 / psy_rd=1.01:0.00 / mixed_ref=1 / me_range=32 / chroma_me=1 / trellis=2 / 8x8dct=1 / cqm=0 / deadzone=21,11 / fast_pskip=0 / chroma_qp_offset=-2 / threads=36 / lookahead_threads=6 / sliced_threads=0 / nr=0 / decimate=0 / interlaced=0 / bluray_compat=0 / constrained_intra=0 / fgo=0 / bframes=8 / b_pyramid=2 / b_adapt=2 / b_bias=0 / direct=3 / weightb=1 / open_gop=0 / weightp=2 / keyint=240 / keyint_min=24 / scenecut=40 / intra_refresh=0 / rc_lookahead=240 / rc=crf / mbtree=1 / crf=17.5000 / qcomp=0.70 / qpmin=0 / qpmax=69 / qpstep=4 / ip_ratio=1.20 / aq=4:0.95 / aq-sensitivity=10.00 / aq-factor=1.00:1.00:1.00 / aq2=0 / aq3=0
Язык : English
Default : Да
Forced : Нет

Аудио #1
Идентификатор : 2
Формат : AC-3
Формат/Информация : Audio Coding 3
Расширение режима : CM (complete main)
Параметр Endianness формата : Big
Идентификатор кодека : A_AC3
Продолжительность : 1 ч. 42 м.
Вид битрейта : Постоянный
Битрейт : 384 Кбит/сек
Каналы : 6 каналов
Расположение каналов : Front: L C R, Side: L R, LFE
Частота : 48,0 КГц
Битовая глубина : 16 бит
Метод сжатия : С потерями
Размер потока : 281 Мбайт (4%)
Заголовок : AC3 5.1 @ 384 kbps - DUB, iTunes
Язык : Russian
Default : Да
Forced : Нет

Аудио #2
Идентификатор : 3
Формат : DTS
Формат/Информация : Digital Theater Systems
Профиль формата : ES
Режим : 16
Параметр Endianness формата : Big
Идентификатор кодека : A_DTS
Продолжительность : 1 ч. 42 м.
Вид битрейта : Постоянный
Битрейт : 1509 Кбит/сек
Каналы : 6 каналов
Расположение каналов : Front: L C R, Side: L R, LFE
Частота : 48,0 КГц
Битовая глубина : 24 бит
Метод сжатия : С потерями
Задержка видео : 11 мс.
Размер потока : 1,08 Гбайт (16%)
Заголовок : DTS 5.1 @ 1536 kbps
Язык : English
Default : Нет
Forced : Нет
info [Профиль]  [ЛС] 

GOGI

Пол: Пол:Муж

Стаж: 6 лет 2 месяца

Сообщений: 170

Финляндия
Рейтинг

post 12-Авг-2013 20:29 (спустя 9 часов) [-]0[+]

[Цитировать] 

Никогда не понимал людей использующих такой шрифт. Такое ощущение, что после каждой буквы жали пробел. И в итоге весь текст превращается в кашу.
info [Профиль]  [ЛС] 

Yetiorel

Пол: Пол:Муж

Стаж: 6 лет 8 месяцев

Сообщений: 63

Россия
Рейтинг

post 12-Авг-2013 22:56 (спустя 2 часа 27 минут) [-]0[+]

[Цитировать] 

Это профессиональный чертёжный шрифт. Я обучающий лист по нему 3 раза перечерчивал...
info [Профиль]  [ЛС] 

Георгий Бутаев

Пол: Пол:Муж

Стаж: 6 лет 8 месяцев

Сообщений: 17

Россия
Рейтинг

post 13-Авг-2013 20:10 (спустя 21 час) [-]0[+]

[Цитировать] 

артур и минипуты ага
info [Профиль]  [ЛС] 

bratpaladin

Пол: Пол:Муж

Стаж: 3 года 3 месяца

Сообщений: 8

Россия
Рейтинг

post 15-Сен-2013 22:01 (спустя 1 месяц 2 дня) [-]0[+]

[Цитировать] 

скачаем... посмотрим... пораздаем...

_________________
info [Профиль]  [ЛС] 

Nitros

Пол: Пол:Муж

Стаж: 6 лет 8 месяцев

Сообщений: 236

Россия
Рейтинг

post 26-Сен-2013 10:57 (спустя 10 дней) [-]0[+]

[Цитировать] 

Добрый и легкий мульт, красиво созданный. Подмигиваю

_________________
MB: Asus Sabertooth Z77
CPU: Intel Core i7-3770 @3.40 GHz
Video: GeForce GTX 680 4Gb DDR5
RAM: 16Gb 1866 MHz
HDD: ST 2Tb + 120Gb SSD OCZ-AGILITY (Windows)

ViewSonic VX2753 Series [27' LCD]
Win 7 Ultimate x64
Beeline Internet DL | UL - 100 Мбит/с
info [Профиль]  [ЛС] 

DenKWE

Пол: Пол:Муж

Стаж: 5 лет 4 месяца

Сообщений: 3

Россия
Рейтинг

post 27-Сен-2013 18:46 (спустя 1 день 7 часов) [-]-6[+]

[Цитировать] 

клас http://tryg2.ru/2150
info [Профиль]  [ЛС] 
Показать сообщения:    
Ответить на тему

Текущее время: 10-Дек 12:56

Часовой пояс: GMT + 4



Вы не можете начинать темы
Вы не можете отвечать на сообщения
Вы не можете редактировать свои сообщения
Вы не можете удалять свои сообщения
Вы не можете голосовать в опросах
Вы не можете прикреплять файлы к сообщениям
Вы не можете скачивать файлы