Ошибка

Футанари девушка Hikari - летняя мастурбация - | futanari girl Hikari -summer Masturbation- [OVA][2013][хентай][DVDRip][JAP][Censored]

Ответить на тему
 
Автор Сообщение

BlackHorror

Пол: Пол:Муж

Стаж: 3 года 10 месяцев

Сообщений: 654

Рейтинг

post 22-Июл-2013 17:12 1[+]

[Цитировать] 

Футанари девушка Hikari - летняя мастурбация -
futanari girl Hikari -summer Masturbation- | Hikari onanie | [bふたなり娘ヒカリの痴態おなにぃ公開中!

Оригинальное Название: ふたなり娘ヒカリの痴態おなにぃ公開中!
Английское Название: futanari girl Hikari -summer Masturbation-
Год выпуска: 2013
Страна:
Жанр: хентай
Продолжительность: OVA (1 эп.), 20 мин.
Цензура: Есть
Перевод: Отсутствует
Режиссёр: Отсутствует
Студия: MiMiA Cute
Описание:
  Мастурбация девушки футанари
Качество:DVDRip
Формат:WMV
Тип видео: Без хардсаба
Видео: VC-1, 1280х720, 5000 kbps, 24.000 fps, 16:9, MP@HL
Аудио: WMA, 2 channels, 44.1 kHz, 385 kbps
  • Beautiful 3D d*ck girl Hikari
  • wanks, gasps, spreads, penetrates, tongues, sucks and spunks a bathtub-ful of jizz
  • Fully voiced performance
  • 3 masturbatory positions + endings
General
Format : Windows Media
File size : 790 MiB
Duration : 20mn 26s
Overall bit rate mode : Variable
Overall bit rate : 5 400 Kbps
Maximum Overall bit rate : 8 448 Kbps
Encoded date : UTC 2013-03-14 11:19:14.999

Video
ID : 2
Format : VC-1
Format profile : MP@HL
Codec ID : WMV3
Codec ID/Info : Windows Media Video 9
Codec ID/Hint : WMV3
Description of the codec : Windows Media Video 9 - Professional
Duration : 20mn 26s
Bit rate mode : Variable
Bit rate : 5 000 Kbps
Width : 1 280 pixels
Height : 720 pixels
Display aspect ratio : 16:9
Frame rate : 24.000 fps
Bit depth : 8 bits
Scan type : Progressive
Bits/(Pixel*Frame) : 0.226
Stream size : 731 MiB (93%)
NumberOfFrames : 29429

Audio
ID : 1
Format : WMA
Format profile : Pro
Codec ID : 162
Codec ID/Info : Windows Media Audio
Description of the codec : Windows Media Audio 10 Professional - 440 kbps, 44 kHz, 2 channel 24 bit 2-pass VBR
Duration : 20mn 26s
Bit rate mode : Variable
Bit rate : 385 Kbps
Channel(s) : 2 channels
Sampling rate : 44.1 KHz
Bit depth : 24 bits
Stream size : 56.3 MiB (7%)
info [Профиль]  [ЛС] 

BlackHorror

Пол: Пол:Муж

Стаж: 3 года 10 месяцев

Сообщений: 654

Рейтинг

post 22-Июл-2013 17:18 (спустя 5 минут) [-]0[+]

[Цитировать] 

Есть еще 1 ролик от этой же студии. Если нужно, то залью =)
Хентайка довольно добротная. Лично мое мнение - Лучшая, среди 3Д

_________________
info [Профиль]  [ЛС] 

delokap69

Пол: Пол:Муж

Стаж: 3 года 11 месяцев

Сообщений: 57

Россия
Рейтинг

post 21-Авг-2013 13:35 (спустя 29 дней) [-]0[+]

[Цитировать] 

модельки сделаны клево, да и сюжетка насыщенная вот тока герой не радует =\
info [Профиль]  [ЛС] 

BlackHorror

Пол: Пол:Муж

Стаж: 3 года 10 месяцев

Сообщений: 654

Рейтинг

post 21-Авг-2013 16:47 (спустя 3 часа) [-]0[+]

[Цитировать] 

delokap69 писал(а):

вот тока герой не радует =\
Футанари не по душе? =)

_________________
info [Профиль]  [ЛС] 

markus77

Пол: Пол:Муж

Стаж: 7 лет 1 месяц

Сообщений: 47

Казахстан
Рейтинг

post 02-Сен-2013 08:37 (спустя 11 дней) [-]0[+]

[Цитировать] 

BlackHorror писал(а):

Есть еще 1 ролик от этой же студии. Если нужно, то залью =)
Хентайка довольно добротная. Лично мое мнение - Лучшая, среди 3Д
давай заливай-)
если по футанари еще есть - тоже заливай...
info [Профиль]  [ЛС] 
Показать сообщения:    
Ответить на тему

Текущее время: 11-Дек 15:51

Часовой пояс: GMT + 4



Вы не можете начинать темы
Вы не можете отвечать на сообщения
Вы не можете редактировать свои сообщения
Вы не можете удалять свои сообщения
Вы не можете голосовать в опросах
Вы не можете прикреплять файлы к сообщениям
Вы не можете скачивать файлы